Grimes - Art Angels (2015) [Official Digital Download 24bit/96kHz]

Posted By: HDV
Grimes - Art Angels (2015) [Official Digital Download 24bit/96kHz]

Grimes - Art Angels (2015)
FLAC (tracks) 24 bit/96 kHz | Time - 49:43 minutes | 1,08 GB
Studio Master, Official Digital Download | Artwork: Front cover

Claire Boucher aka Grimes' fourth album, produced and engineered by herself. Spanning over 14 tracks, the new album features collaborations with Janelle Monáe and newcomer, Taiwanese rapper Aristophanes. It was recorded primarily in her home studio in Los Angeles, CA, where she relocated to in 2014. Like all of her previous albums, Art Angels was written and recorded entirely as a solo endeavor. The new album features more live instrumentation than ever before on a Grimes record. She plays piano, guitar and violin, continuing her evolution as a musician and a producer for her most ambitious album to date.

Tracklist:

01 - laughing and not being normal
02 - California
03 - SCREAM [feat. Aristophanes]
04 - Flesh without Blood
05 - Belly of the Beat
06 - Kill V. Maim
07 - Artangels
08 - Easily
09 - Pin
10 - Realiti
11 - World Princess part II
12 - Venus Fly [feat. Janelle Monáe]
13 - Life in the Vivid Dream
14 - Butterfly

Note: 44kHz sources mastered to 96kHz/24bit.

Analyzed: Grimes / Art Angels
––––––––––––––––––––––––––––––––––––––––

DR Peak RMS Duration Track
––––––––––––––––––––––––––––––––––––––––
DR7 -0.01 dB -11.35 dB 1:48 01-laughing and not being normal
DR6 -0.01 dB -7.92 dB 3:18 02-California
DR3 -0.01 dB -5.64 dB 2:20 03-SCREAM (feat. Aristophanes)
DR4 -0.01 dB -4.88 dB 4:25 04-Flesh without Blood
DR8 -0.01 dB -10.95 dB 3:26 05-Belly of the Beat
DR4 -0.01 dB -5.40 dB 4:06 06-Kill V. Maim
DR5 -0.01 dB -6.84 dB 4:07 07-Artangels
DR6 -0.01 dB -9.11 dB 3:03 08-Easily
DR5 -0.01 dB -7.47 dB 3:32 09-Pin
DR5 -0.01 dB -6.25 dB 5:07 10-Realiti
DR6 -0.01 dB -7.78 dB 5:06 11-World Princess part II
DR3 -0.01 dB -6.08 dB 3:46 12-Venus Fly (feat. Janelle Monáe)
DR8 -0.01 dB -12.10 dB 1:28 13-Life in the Vivid Dream
DR5 -0.01 dB -8.16 dB 4:13 14-Butterfly
––––––––––––––––––––––––––––––––––––––––

Number of tracks: 14
Official DR value: DR5

Samplerate: 96000 Hz
Channels: 2
Bits per sample: 24
Bitrate: 2908 kbps
Codec: FLAC
================================================================================


Thanks to the Original customer!