Hank Snow - Gospel Train (1966/2016) [Official Digital Download 24-bit/192 kHz]

Posted By: HDV
Hank Snow - Gospel Train (1966/2016) [Official Digital Download 24-bit/192 kHz]

Hank Snow - Gospel Train (1966/2016)
FLAC (tracks) 24-bit/192 kHz | Time - 31:35 minutes | 1,26 GB
Studio Master, Official Digital Download | Artwork: Front cover

Canada's greatest contribution to country music, Hank Snow was famous for his "traveling" songs. Recorded at RCA's "Nashville Sound" Studio in Nahville, this album have been released in 1966 by RCA Victor label.

Tracklist:

01 - This Train
02 - I See Jesus
03 - My Religion's Not Old-Fashioned (But It's Real Genuine)
04 - Dear Lord, Remember Me
05 - Shop Worn
06 - I'm Glad I'm On the Inside (Looking Out)
07 - I'll Go Marching Into Glory
08 - What Then
09 - The Runt
10 - How Big Is God?
11 - The Lord's Way of Saying Goodnight
12 - A Man Who Is Wise

Produced by Chet Atkins.
Recorded in March 1966 at RCA Victor Studio, Nashville, TN.

Analyzed: Hank Snow / Gospel Train
––––––––––––––––––––––––––––––––––––––––

DR Peak RMS Duration Track
––––––––––––––––––––––––––––––––––––––––
DR12 -1.29 dB -14.92 dB 2:19 01-This Train
DR12 -0.10 dB -14.96 dB 3:22 02-I See Jesus
DR12 -0.10 dB -13.91 dB 2:20 03-My Religion's Not Old-Fashioned (But It's Real Genuine)
DR12 -0.10 dB -14.94 dB 2:17 04-Dear Lord, Remember Me
DR15 -0.45 dB -18.35 dB 2:40 05-Shop Worn
DR12 -0.10 dB -13.56 dB 3:00 06-I'm Glad I'm On the Inside (Looking Out)
DR12 -0.32 dB -14.79 dB 1:51 07-I'll Go Marching Into Glory
DR13 -0.71 dB -15.98 dB 2:45 08-What Then
DR15 -0.10 dB -16.53 dB 2:59 09-The Runt
DR12 -0.25 dB -14.31 dB 3:08 10-How Big Is God?
DR12 -0.46 dB -14.85 dB 2:32 11-The Lord's Way of Saying Goodnight
DR12 -1.77 dB -15.41 dB 2:23 12-A Man Who Is Wise
––––––––––––––––––––––––––––––––––––––––

Number of tracks: 12
Official DR value: DR12

Samplerate: 192000 Hz
Channels: 2
Bits per sample: 24
Bitrate: 5264 kbps
Codec: FLAC
================================================================================


Thanks to the Original customer!