Subcategories

Helmut Lotti - Pop Classics In Symphony (2003) [2.0 & 5.1] PS3 ISO + Hi-Res FLAC

Posted By: HDAtall
Helmut Lotti - Pop Classics In Symphony (2003) [2.0 & 5.1] PS3 ISO + Hi-Res FLAC

Helmut Lotti - Pop Classics In Symphony (2003) [2.0 & 5.1]
PS3 Rip | SACD ISO | DST64 2.0 & 5.1 > 1-bit/2.8224 MHz | 62:29 minutes | Scans included | 3,87 GB
or FLAC(converted with foobar2000 to tracks) 24bit/88,2 kHz | Full Scans included | 1,33 GB
Features 2.0 Stereo & 5.1 multichannel Surround sound

Helmut Lotti is a Flemish Belgian tenor and singer-songwriter. He is performs in several styles and languages, and he is a multi-million-selling artist worldwide. Once an Elvis impersonator, he has sung African, Latino and Russian hit records, and he crossed over into classical music in the 1990s.

Tracklist:

01. Ouverture / Bohemian Rhapsody
02. Hotel California
03. Crying
04. A Whiter Shade of Pale
05. The House of the Rising Sun
06. Sitting on the Dock of the Bay
07. Nights in White Satin
08. Mandy
09. When a Man Loves a Woman
10. Danny Boy
11. He ain't Heavy He's my Brother
12. Eloise
13. Proud Mary
14. I'm Sailing

foobar2000 1.3.3 / Dynamic Range Meter 1.1.1

––––––––––––––––––––––––––––––––––––––––
Analyzed: Helmut Lotti / Pop Classics in Symphony
––––––––––––––––––––––––––––––––––––––––

DR Peak RMS Duration Track
––––––––––––––––––––––––––––––––––––––––
DR14 -9.74 dB -30.24 dB 7:00 01-Ouverture / Bohemian Rhapsody
DR14 -12.66 dB -33.00 dB 5:21 02-Hotel California
DR14 -11.71 dB -32.41 dB 3:54 03-Crying
DR15 -10.71 dB -32.67 dB 4:23 04-A Whiter Shade of Pale
DR13 -11.98 dB -30.06 dB 3:43 05-The House of the Rising Sun
DR15 -12.76 dB -32.69 dB 3:21 06-Sitting on the Dock of the Bay
DR11 -13.55 dB -29.24 dB 4:29 07-Nights in White Satin
DR13 -10.26 dB -29.64 dB 3:31 08-Mandy
DR15 -10.35 dB -30.09 dB 3:33 09-When a Man Loves a Woman
DR11 -16.60 dB -33.69 dB 3:55 10-Danny Boy
DR13 -11.64 dB -28.93 dB 4:31 11-He ain't Heavy He's my Brother
DR13 -12.62 dB -29.31 dB 5:17 12-Eloise
DR13 -11.24 dB -30.16 dB 3:57 13-Proud Mary
DR15 -9.63 dB -30.24 dB 5:35 14-I'm Sailing
––––––––––––––––––––––––––––––––––––––––

Number of tracks: 14
Official DR value: DR13

Samplerate: 2822400 Hz / PCM Samplerate: 88200 Hz
Channels: 6
Bits per sample: 24
Bitrate: 16934 kbps
Codec: DST64
================================================================================

––––––––––––––––––––––––––––––––––––––––
Analyzed: Helmut Lotti / Pop Classics in Symphony
––––––––––––––––––––––––––––––––––––––––

DR Peak RMS Duration Track
––––––––––––––––––––––––––––––––––––––––
DR11 -7.66 dB -21.72 dB 7:00 01-Ouverture / Bohemian Rhapsody
DR11 -5.86 dB -19.80 dB 5:21 02-Hotel California
DR11 -5.11 dB -19.52 dB 3:54 03-Crying
DR13 -5.04 dB -22.31 dB 4:23 04-A Whiter Shade of Pale
DR11 -7.18 dB -20.06 dB 3:43 05-The House of the Rising Sun
DR13 -6.31 dB -21.85 dB 3:21 06-Sitting on the Dock of the Bay
DR9 -5.47 dB -18.45 dB 4:29 07-Nights in White Satin
DR12 -4.87 dB -19.72 dB 3:31 08-Mandy
DR12 -5.40 dB -18.77 dB 3:33 09-When a Man Loves a Woman
DR11 -7.40 dB -22.74 dB 3:55 10-Danny Boy
DR12 -5.41 dB -19.86 dB 4:31 11-He ain't Heavy He's my Brother
DR10 -5.33 dB -18.50 dB 5:17 12-Eloise
DR12 -4.95 dB -19.50 dB 3:57 13-Proud Mary
DR13 -4.42 dB -20.25 dB 5:35 14-I'm Sailing
––––––––––––––––––––––––––––––––––––––––

Number of tracks: 14
Official DR value: DR11

Samplerate: 2822400 Hz / PCM Samplerate: 88200 Hz
Channels: 2
Bits per sample: 24
Bitrate: 5645 kbps
Codec: DST64


Uncompressed SACD ISO size > 3,61 GB
Thanks to grillbrill!