Herbie Hancock - Maiden Voyage (1965) [Analogue Productions 2010] PS3 ISO + Hi-Res FLAC / RE-UP

Posted By: HDAtall
Herbie Hancock - Maiden Voyage (1965) [Analogue Productions 2010] PS3 ISO + Hi-Res FLAC / RE-UP

Herbie Hancock - Maiden Voyage (1965) [APO Remaster 2010]
PS3 Rip | SACD ISO | DSD64 2.0 > 1-bit/2.8224 MHz | 42:23 minutes | Scans included | 1,29 GB
or FLAC(converted with foobar2000 to tracks) 24bit/88,2 kHz | Full Scans included | 951 MB

Maiden Voyage is the fifth album led by jazz musician Herbie Hancock, and was recorded by Rudy Van Gelder on March 17, 1965 for Blue Note Records. It was issued as BLP 4195 and BST 84195. It is a concept album aimed at creating an oceanic atmosphere. Many of the track titles refer to marine biology or the sea, and the musicians develop the concept through their use of space and almost tidal dynamics. The album was presented with the Grammy Hall of Fame Award in 1999.

Less overtly adventurous than its predecessor, Empyrean Isles, Maiden Voyage nevertheless finds Herbie Hancock at a creative peak. In fact, it's arguably his finest record of the '60s, reaching a perfect balance between accessible, lyrical jazz and chance-taking hard bop. By this point, the pianist had been with Miles Davis for two years, and it's clear that Miles' subdued yet challenging modal experiments had been fully integrated by Hancock. Not only that, but through Davis, Hancock became part of the exceptional rhythm section of bassist Ron Carter and drummer Tony Williams, who are both featured on Maiden Voyage, along with trumpeter Freddie Hubbard and tenor saxophonist George Coleman. The quintet plays a selection of five Hancock originals, many of which are simply superb showcases for the group's provocative, unpredictable solos, tonal textures, and harmonies. While the quintet takes risks, the music is lovely and accessible, thanks to Hancock's understated, melodic compositions and the tasteful group interplay. All of the elements blend together to make Maiden Voyage a shimmering, beautiful album that captures Hancock at his finest as a leader, soloist, and composer.

Tracklist:

01. Maiden Voyage
02. The Eye Of The Hurricane
03. Little One
04. Survival Of The Fittest
05. Dolphin Dance

Recorded on March 17, 1965 at Van Gelder Studio, Englewood Cliffs, NJ.

Personnel
Herbie Hancock - piano
Freddie Hubbard - trumpet
George Coleman - tenor saxophone
Ron Carter - bass
Tony Williams - drums

foobar2000 1.2.8 / Dynamic Range Meter 1.1.1

––––––––––––––––––––––––––––––––––––––––
Analyzed: Herbie Hancock / Maiden Voyage
––––––––––––––––––––––––––––––––––––––––

DR Peak RMS Duration Track
––––––––––––––––––––––––––––––––––––––––
DR15 -5.62 dB -24.83 dB 7:59 01-Maiden Voyage
DR14 -6.58 dB -24.35 dB 6:02 02-The Eye Of The Hurricane
DR15 -8.81 dB -28.55 dB 8:50 03-Little One
DR15 -6.79 dB -26.34 dB 10:08 04-Survival Of The Fittest
DR15 -7.45 dB -27.11 dB 9:25 05-Dolphin Dance
––––––––––––––––––––––––––––––––––––––––

Number of tracks: 5
Official DR value: DR15

Samplerate: 2822400 Hz / PCM Samplerate: 88200 Hz
Channels: 2
Bits per sample: 24
Bitrate: 5645 kbps
Codec: DSD64


Thanks to ManWhoCan!
Uncompressed SACD ISO size > 1,7 GB
>