Herbie Mann - Caminho De Casa (1990) [Reissue 2004] MCH SACD ISO + Hi-Res FLAC

Posted By: HDAtall
Herbie Mann - Caminho De Casa (1990) [Reissue 2004] MCH SACD ISO + Hi-Res FLAC

Herbie Mann - Caminho De Casa (1990) [Reissue 2004]
SACD Rip | SACD ISO | DSD64 2.0 & DST64 5.0 > 1-bit/2.8224 MHz | 53:30 minutes | Front/Rear+PDF | 3,16 GB
or FLAC 2.0 Stereo (converted with foobar2000 to tracks) 24bit/88,2 kHz | Front/Rear+PDF booklet | 1,09 GB
Features Stereo and Multichannel surround sound | Label: Chesky Records # SACD280

Caminho de Casa was flutist Herbie Mann's third album with his group Jasil Brazz and his first for Chesky Records. Re-issued for the first time in Hybrid Multi-Channel SACD, this 1990 recording from the legendary RCA Studio A in New York City features a rich repertoire including compositions from prominent Brazilian composers of the time including Ivan Lins, Milton Nascimento, Nelson Ayres and Roberto Carlos.

Flutist Herbie Mann and his group of the time (Jasil Brazz) perform contemporary Brazilian music on this CD, including three numbers by Ivan Lins. Some of the treatments are strictly easy listening or close to bossa nova, while others would fit into the "contemporary jazz" category. On a whole, this is a pleasing set, both as background music and for close listenings – one of Mann's better ones from the past 20 years.

Tracklist:

01. Caminho De Casa (Pathway Home)
02. Gabriela's Song
03. Aparecida
04. Seu Corpo (Your Body)
05. Pao E Poesia (Bread And Poetry)
06. Yesterday's Kisses
07. Anima (Soul)
08. Choro Das Aguas (Cry Of The Waters)
09. Doa A Quem Doer (No Matter Who It Hurts)

Produced by David Chesky & Herbie Mann. Executive Producer: Norman Chesky.
Engineered by Bob Katz. Recorded on March 14-16, 1990 at RCA Studio A, NYC.

Personnel
Herbie Mann - flute & alto flute
Eduardo Simon - piano on "1,6-8"
Mark Soskin - piano on "2-5 & 9"
Romero Lubambo - guitar
Paul Socolow - bass
Ricky Sebastian - drums
Café - percussion

foobar2000 1.3.17 / Dynamic Range Meter 1.1.1

––––––––––––––––––––––––––––––––––––––––
Analyzed: Herbie Mann / Caminho De Casa
––––––––––––––––––––––––––––––––––––––––

DR Peak RMS Duration Track
––––––––––––––––––––––––––––––––––––––––
DR10 -9.98 dB -29.37 dB 6:34 01-Caminho De Casa (Pathway Home)
DR10 -12.42 dB -33.09 dB 3:33 02-Gabriela's Song
DR10 -7.58 dB -30.38 dB 7:45 03-Aparecida
DR11 -14.92 dB -35.76 dB 4:56 04-Seu Corpo (Your Body)
DR10 -6.26 dB -25.58 dB 4:19 05-Pao E Poesia (Bread And Poetry)
DR11 -15.50 dB -36.35 dB 5:41 06-Yesterday's Kisses
DR12 -9.61 dB -32.72 dB 8:46 07-Anima (Soul)
DR11 -12.69 dB -34.85 dB 5:57 08-Choro Das Aguas (Cry Of The Waters)
DR11 -6.92 dB -27.38 dB 5:59 09-Doa A Quem Doer (No Matter Who It Hurts)
––––––––––––––––––––––––––––––––––––––––

Number of tracks: 9
Official DR value: DR11

Samplerate: 2822400 Hz / PCM Samplerate: 88200 Hz
Channels: 5
Bits per sample: 1
Bitrate: 14112 kbps
Codec: DST64
================================================================================

––––––––––––––––––––––––––––––––––––––––
Analyzed: Herbie Mann / Caminho De Casa
––––––––––––––––––––––––––––––––––––––––

DR Peak RMS Duration Track
––––––––––––––––––––––––––––––––––––––––
DR13 -9.98 dB -25.83 dB 6:34 01-Caminho De Casa (Pathway Home)
DR12 -12.42 dB -29.77 dB 3:33 02-Gabriela's Song
DR14 -7.58 dB -27.00 dB 7:45 03-Aparecida
DR13 -14.92 dB -32.30 dB 4:56 04-Seu Corpo (Your Body)
DR12 -6.26 dB -22.07 dB 4:19 05-Pao E Poesia (Bread And Poetry)
DR13 -15.50 dB -32.82 dB 5:41 06-Yesterday's Kisses
DR15 -9.61 dB -29.21 dB 8:46 07-Anima (Soul)
DR13 -12.69 dB -31.40 dB 5:57 08-Choro Das Aguas (Cry Of The Waters)
DR14 -6.92 dB -23.86 dB 5:59 09-Doa A Quem Doer (No Matter Who It Hurts)
––––––––––––––––––––––––––––––––––––––––

Number of tracks: 9
Official DR value: DR13

Samplerate: 2822400 Hz / PCM Samplerate: 88200 Hz
Channels: 2
Bits per sample: 1
Bitrate: 5645 kbps
Codec: DSD64


Thanks to jazzyman!
Uncompressed SACD ISO size > 3,71 GB
>