Howard McGhee - Dusty Blue (1961/2013) [Official Digital Download 24/96]

Posted By: HDV
Howard McGhee - Dusty Blue (1961/2013) [Official Digital Download 24/96]

Howard McGhee - Dusty Blue (1961/2013)
FLAC (tracks) 24-bit/96 kHz | Time - 35:32 minutes | 725 MB
Studio Master, Official Digital Download | Artwork: Digital booklet

Howard McGhee made a comeback in the early 1960s and Dusty Blue from 1961 is one of the strongest sessions from that period. Ghee performs in both quartet and septet configurations accompanied by musicians like Pepper Adams on baritone sax, Tommy Flanagan on piano and bassist Ron Carter.

The 1950s had largely been a waste for Howard McGhee, as drug addiction had taken its toll on his playing. But he is in good form for this 1961 studio session for Bethlehem, leading a septet with baritone saxophonist Pepper Adams, trombonist Bennie Green, and tenor saxophonist Roland Alexander, with a top-notch rhythm section of Tommy Flanagan, Ron Carter, and Walter Bolden an added bonus. His delicious muted horn is the centerpiece of the lightly swinging take of "The Sound of Music" and strolling rendition of the normally bittersweet "Cottage for Sale," while he's on open horn for a snappy take of Cole Porter's "I Concentrate on You." McGhee's explosive side comes out in bop favorites like "Groovin' High," yet he is just as powerful playing long notes in the lush ballad "With Malice Toward None." McGhee's originals are all enjoyable, though none caught on with other jazz musicians.

Tracklist:

01 - Dusty Blue
02 - The Sound Of Music
03 - I Concentrate On You
04 - Sleep Talk
05 - Park Avenue Petite
06 - Flyin' Colors
07 - With Malice Towards None
08 - Groovin' High
09 - A Cottage For Sale

Originally Produced by Teddy Charles.
Recorded on June 13, 1960, New York, NYC.
Remastering: John Sigmon. Transfer Engineers: Alex Nappi & Dana Pedersen.
Remastered in 2013.

Musicians:
Howard McGhee - trumpet
Bennie Green - trombone on "1, 5, 6 & 8"
Roland Alexander - tenor saxophone on "1, 5, 6 & 8"
Pepper Adams - baritone saxophone on "1, 5, 6 & 8"
Tommy Flanagan - piano
Ron Carter - bass
Walter Bolden - drums


Analyzed: Howard McGhee / Dusty Blue
––––––––––––––––––––––––––––––––––––––––

DR Peak RMS Duration Track
––––––––––––––––––––––––––––––––––––––––
DR12 -3.68 dB -18.64 dB 2:53 01-Dusty Blue
DR12 -2.57 dB -17.93 dB 3:22 02-The Sound Of Music
DR13 -2.17 dB -18.06 dB 4:07 03-I Concentrate On You
DR11 -5.24 dB -19.69 dB 2:55 04-Sleep Talk
DR12 -3.93 dB -18.98 dB 3:32 05-Park Avenue Petite
DR12 -1.96 dB -17.70 dB 5:53 06-Flyin' Colors
DR12 -3.62 dB -20.25 dB 4:01 07-With Malice Towards None
DR12 -4.00 dB -17.84 dB 4:19 08-Groovin' High
DR13 -1.88 dB -18.04 dB 4:30 09-A Cottage For Sale
––––––––––––––––––––––––––––––––––––––––

Number of tracks: 9
Official DR value: DR12

Samplerate: 96000 Hz
Channels: 2
Bits per sample: 24
Bitrate: 2692 kbps
Codec: FLAC
================================================================================


Thanks to the Original customer!