Hurts - Surrender {Deluxe Edition} (2015) [Official Digital Download]

Posted By: HDV
Hurts - Surrender {Deluxe Edition} (2015) [Official Digital Download]

Hurts - Surrender (2015) [Deluxe Edition]
FLAC (tracks) 24-bit/44,1 kHz | Time - 44:53 minutes | 559 MB
Studio Master, Official Digital Download | Artwork: Front cover

"Surrender" is the third studio album by English synth-pop duo Hurts. Debuting at #12 in the UK Albums Chart, the album features the singles 'Some Kind of Heaven', 'Rolling Stone', 'Lights', 'Slow' and 'Wish'. Though the duo sometimes return to the comparative safety of moping synthetic orchestras, and soul-reflecting mirrors lying conveniently on the Camberwell Road pavement, for the most part, there's a new sense of fun to Hurts.


If Hurts' previous release, 2013's Exile, expanded on the grayscale minimalism of their 2010 debut with a symphonic grandiosity that imbued their sound with tasteful hints of color, then their 2015 release Surrender marks their entree into luminous, full-scale chromatism. Centered on the talents of vocalist Theo Hutchcraft and instrumentalist Adam Anderson, Hurts have built a rabidly loyal following with their distinctive, highly stylized sound. Joining Hurts here is Exile's Jonas Quant, along with Grammy-winning producers Stuart Price (Madonna, the Killers) and Ariel Rechtshaid (Haim, Vampire Weekend). Hutchcraft and Anderson remain in creative control, however, approaching their '80s-esque brand of pop/rock with as much deft precision as ever. The main difference here is the overall feeling of buoyancy, as Hutchcraft and Anderson apply their top-shelf pop songcraft to a decidedly more energized and euphoric collection of tunes than we’ve heard from them in the past, like the '70s disco-inspired "Lights," and "Kaleidoscope." Even when contemplating the dichotomous complexities of romantic love, as Hutchcraft does on "Why," singing, "If this is love, why does it hurt so bad?," his yearning ennui can't bring down the track's pulsating, flamenco-steeped house beat. And yet Surrender still manages to retain all the orchestral glory and synth-laden drama of Hurts' previous efforts, even as the tracks border on feeling downright uplifting. And as always, it's all brilliantly hooky and infectious, each cut stacked with inspired moments of production levity, as in the kinetic handclap breakdown in "Some Kind of Heaven," or the Daft Punk-style robot voices toward the end of "Why." From its gospel-steeped title track intro, to its tender piano ballad ending, Surrender plays as one giant, flamboyant arc; a backward swoon onto the bloody dancefloor. As Hutchcraft sings on "Some Kind of Heaven, "I am ready for the rapture/I am reaching for the light/But my heart screams hallelujah."

Tracklist:

01 - Surrender
02 - Some Kind Of Heaven
03 - Why
04 - Nothing Will Be Bigger Than Us
05 - Rolling Stone
06 - Lights
07 - Slow
08 - Kaleidoscope
09 - Wings
10 - Wish
11 - Perfect Timing
12 - Weight Of The World
13 - Policewoman

Analyzed: Hurts / Surrender (Deluxe Edition)
––––––––––––––––––––––––––––––––––––––––

DR Peak RMS Duration Track
––––––––––––––––––––––––––––––––––––––––
DR5 -0.02 dB -7.91 dB 1:17 01-Surrender
DR4 -0.10 dB -5.83 dB 3:19 02-Some Kind Of Heaven
DR3 -0.02 dB -5.06 dB 3:28 03-Why
DR4 -0.02 dB -6.12 dB 4:03 04-Nothing Will Be Bigger Than Us
DR3 -0.02 dB -5.77 dB 3:41 05-Rolling Stone
DR3 -0.02 dB -5.62 dB 3:31 06-Lights
DR3 0.00 dB -4.15 dB 3:29 07-Slow
DR3 -0.02 dB -5.24 dB 3:05 08-Kaleidoscope
DR3 -0.08 dB -5.28 dB 3:45 09-Wings
DR4 -0.02 dB -7.40 dB 3:36 10-Wish
DR5 -0.02 dB -6.89 dB 3:06 11-Perfect Timing
DR3 -0.02 dB -5.83 dB 3:48 12-Weight Of The World
DR4 -0.02 dB -6.80 dB 4:43 13-Policewoman
––––––––––––––––––––––––––––––––––––––––

Number of tracks: 13
Official DR value: DR4

Samplerate: 44100 Hz
Channels: 2
Bits per sample: 24
Bitrate: 1582 kbps
Codec: FLAC
================================================================================


Thanks to the Original customer!