Subcategories

Iron Maiden - Killers (1981/2015) [Official Digital Download 24-bit/96kHz]

Posted By: HDV
Iron Maiden - Killers (1981/2015) [Official Digital Download 24-bit/96kHz]

Iron Maiden - Killers (1981/2015)
FLAC (tracks) 24-bit/96 kHz | Time - 38:48 minutes | 945 MB
Studio Master, Official Digital Download | Artwork: Front cover

Killers is the second album by British heavy metal band Iron Maiden. The album was their first with guitarist Adrian Smith and their last with vocalist Paul Di'Anno, who was sacked after problems with his stage performance arose due to his alcohol and cocaine use. This was also the first Iron Maiden album made with veteran producer Martin Birch, who went on to produce their next eight albums before retiring after Fear of the Dark in 1992.

Iron Maiden's sophomore effort, Killers, is mostly composed of pre-existing material that had been left off the debut, with just a few new additions. It's certainly a better-sounding release than the debut, with new producer Martin Birch beefing up the band's studio presence and lending their instrumental attack a newfound clarity that throws their considerable skills into sharp relief. In fact, this helps mask the fact that the songwriting isn't quite as strong overall as it was on the debut. But the teaming of new guitarist Adrian Smith with Dave Murray forms the most formidable twin-guitar attack in heavy metal, outside of Glenn Tipton and K.K. Downing. Plus, bassist Steve Harris' busy, driving lines are now consistently audible in the mix. The resulting instrumental fireworks are what truly make the album tick. That said, there's a much smaller percentage of catalog standards here than on the previous album. "Wrathchild" is the standout, re-recorded here with Smith on guitar from an earlier version for the Metal for Muthas compilation. There's a fair bit of unity in the lyrical themes, with a parade of murderers, fugitives, and characters otherwise torn from their roots. "Murders in the Rue Morgue" is a first-person retelling of the Poe short story, and the title track is another highlight, with Paul Di'Anno turning in an especially menacing performance. The single "Purgatory" has a catchy singalong chorus and a tempo worthy of Motörhead, while "Twilight Zone" (not included on the U.K. issue, but added to subsequent releases) scraped the bottom of the British charts. The biggest departure here is the almost Supertramp-like prog-pop of "Prodigal Son," a melodic, uptempo offering with an arrangement based around acoustic guitars. Despite some inconsistency in the material, Killers is clearly the work of a top-notch ensemble, and in order to take the next step forward, their musical ambitions were clearly going to require a vocalist as technically accomplished as the band. It's worth noting that some Maiden fans actually prefer the rawness of the Di'Anno years to the polish of the Bruce Dickinson era.

Tracklist:

01 - The Ides Of March
02 - Wrathchild
03 - Murders In The Rue Morgue
04 - Another Life
05 - Genghis Khan
06 - Innocent Exile
07 - Killers
08 - Prodigal Son
09 - Purgatory
10 - Drifter

Analyzed: Iron Maiden / Killers
––––––––––––––––––––––––––––––––––––––––

DR Peak RMS Duration Track
––––––––––––––––––––––––––––––––––––––––
DR7 -1.01 dB -9.12 dB 1:45 01-The Ides Of March
DR7 -0.77 dB -8.26 dB 2:55 02-Wrathchild
DR7 -0.68 dB -9.01 dB 4:19 03-Murders In The Rue Morgue
DR7 -0.68 dB -8.65 dB 3:24 04-Another Life
DR7 -0.84 dB -9.42 dB 3:08 05-Genghis Khan
DR6 -0.80 dB -8.55 dB 3:53 06-Innocent Exile
DR7 -0.77 dB -8.49 dB 5:02 07-Killers
DR8 -0.57 dB -10.02 dB 6:13 08-Prodigal Son
DR7 -0.92 dB -8.57 dB 3:21 09-Purgatory
DR6 -0.81 dB -8.41 dB 4:49 10-Drifter
––––––––––––––––––––––––––––––––––––––––

Number of tracks: 10
Official DR value: DR7

Samplerate: 96000 Hz
Channels: 2
Bits per sample: 24
Bitrate: 3275 kbps
Codec: FLAC
================================================================================


Thanks to the Original customer!

More Iron Maiden in Hi-Res