Isaac Delusion - Rust & Gold (2017) [Official Digital Download]

Posted By: HDV
Isaac Delusion - Rust & Gold (2017) [Official Digital Download]

Isaac Delusion - Rust & Gold (2017)
FLAC (tracks) 24-bit/44,1 kHz | Time - 46:08 minutes | 532 MB
Studio Master, Official Digital Download | Artwork: Front cover

Isaac Delusion was a revelation in 2014 after releasing a catchy and fresh album bringing french music elegant synthpop and a new kind of voice. This remains in this new outing as Loic's voice is distinctive and high pitched.


Isabella reminds the freshness of their debut album, thanks to rich production and engaging composition. So is also the magnetic Distance, relying on a destructured beat not far from drum’n’bass. Mysterious and spleen ambiances are well mixed, making this song a winner. Voyager and its peruvian flute adds great feeling and gives hopes that the second album is on the right tracks. Some of these new experimentations are enjoyable as Take The Crown. Despite a confused first part, the song manages to take its flight in a seductive instrumental part. Same would not be said about the blues influenced The Sinner, completely blurred by over the place singing. The voice here is annoying and too forced during most of the track. Luck and Mercy uses same blues beat, eyeing rather in a Portishead way. Voice is arranged to remind Beth Gibbons’ Glory Box, but honestly I’m feeling lost and don’t know where the track is going. Psychedelic synth rock is invited in a dynamic Black Widow, quite soulful indeed. This proves Isaac Delusion made a good choice of wanting to renew his sound. How Much (You Want Her) is a pop soul venture, enjoyable and retro, but lacks the magic the band got in the first album. However it’s a highlight of Rust & Gold.

The band seems to find back its audacious mojo and inspiration in the catchy A few Steps, borrowing some interesting drum’n’bass structure and jazz influences. A rich track, where Loic’s voice is cleverly controlled yet enjoyable. A deep and soulful Bittersweet Fruit could be the best song here, as Loic’s voice is really haunting here. The guitar notes are melancholic, and the track should be a perfect indie movie soundtrack. Dream pop is invited in the ethereal Mother Shelter, a sleepy but confortable musical experience, closing in the best way this new album. Despite some weird experimentations and , the french band delivers another interesting musical piece. Some instrumentations stand out as audacious and graceful, making this Rust & Gold a decent affair.

Tracklist:

01 - Isabella
02 - Black Widow
03 - The Sinner
04 - Voyager
05 - Cajun
06 - Luck & Mercy
07 - Distance
08 - Bittersweet Fruit
09 - How Much (You Want Her) 2017
10 - Take the Crown
11 - A Few Steps
12 - Mother Shelter

Analyzed: Isaac Delusion / Rust & Gold
––––––––––––––––––––––––––––––––––––––––

DR Peak RMS Duration Track
––––––––––––––––––––––––––––––––––––––––
DR6 -0.94 dB -9.92 dB 5:14 01-Isabella
DR5 -0.94 dB -6.67 dB 3:51 02-Black Widow
DR4 -0.94 dB -7.48 dB 4:23 03-The Sinner
DR5 -0.94 dB -7.75 dB 3:09 04-Voyager
DR5 -0.94 dB -8.49 dB 3:55 05-Cajun
DR6 -0.94 dB -8.65 dB 3:35 06-Luck & Mercy
DR4 -0.94 dB -7.06 dB 3:58 07-Distance
DR6 -0.94 dB -9.45 dB 3:31 08-Bittersweet Fruit
DR6 -0.94 dB -8.96 dB 3:41 09-How Much (You Want Her) 2017
DR6 -0.94 dB -9.11 dB 3:35 10-Take the Crown
DR5 -0.94 dB -7.41 dB 3:23 11-A Few Steps
DR6 -0.94 dB -8.57 dB 3:53 12-Mother Shelter
––––––––––––––––––––––––––––––––––––––––

Number of tracks: 12
Official DR value: DR5

Samplerate: 44100 Hz
Channels: 2
Bits per sample: 24
Bitrate: 1504 kbps
Codec: FLAC
================================================================================


Thanks to the Original customer!

Isaac Delusion - Isaac Delusion (2014)