Jack Johnson - To The Sea (2010/2014) [Official Digital Download 24-bit/96kHz]

Posted By: HDV
Jack Johnson - To The Sea (2010/2014) [Official Digital Download 24-bit/96kHz]

Jack Johnson - To The Sea (2010/2014)
FLAC (tracks) 24-bit/96 kHz | Time - 41:35 minutes | 899 MB
Studio Master, Official Digital Download | Artwork: Front cover

Jack Johnson's To The Sea debuted at number one in the US in 2010 and topped the charts in five other countries. Recorded again in two solar-powered studios, the material on this album broadened out the range of instrumentation with more electric guitar and was even a bit heavier than what was expected from Johnson. Nonetheless fans embraced this new sound, giving Johnson another US gold and Canadian platinum album. G. Love guests on harmonica on two tracks.

Jack Johnson quietly turned into a star over the course of the 2000s, so it’s only fitting that he inaugurates the second decade of his recording career with To the Sea, an album that feels like the work of a soft rock superstar. Of course, that’s what Johnson is, but he’s avoided sounding that way by performing soft-shuffle acoustic numbers, camouflaging his pop move as a soundtrack to Curious George, then getting mellowly introspective on 2008’s Sleep Through the Static. To the Sea blows away the drowsy cobwebs from Sleep, pushing the acoustic guitar to the background and letting his band groove politely, usually in an amiable, unhurried gait that never breaks a sweat even when the musicians goose the tempo a bit. Call it the signature of a surfer so bleached by the sun that he rushes nothing, but To the Sea substitutes the sunset strum-alongs of his earliest records for a sleek daytime sheen that might glimmer too brightly for hippies but it makes for a better overall pop record, the kind of album that suits Jack Johnson’s stature as surfer turned AAA crooner.

Tracklist:

01 - You And Your Heart
02 - To The Sea
03 - No Good With Faces
04 - At Or With Me
05 - When I Look Up
06 - From The Clouds
07 - My Little Girl
08 - Turn Your Love
09 - The Upsetter
10 - Red Wine, Mistakes, Mythology
11 - Pictures Of People Taking Pictures
12 - Anything But The Truth
13 - Only The Ocean

Produced by Jack Johnson and Robert Carranza. Engineered by Robert Carranza.
Recorded at the Solar Powered Plastic Plant, Los Angeles, CA, & The Mango Tree, Hawaii.
Mastered by Bernie Grundman.

Musicians:
Jack Johnson - vocals, guitar, ukulele, Mellotron, percussion
Zach Gill - melodica, piano, Wurlitzer organ, percussion, background vocals
Adam Topol - glockenspiel, drums, percussion, background vocals
Merlo Podlewski - percussion, background vocals

Analyzed: Jack Johnson / To The Sea
––––––––––––––––––––––––––––––––––––––––

DR Peak RMS Duration Track
––––––––––––––––––––––––––––––––––––––––
DR6 0.00 dB -8.30 dB 3:13 01-You And Your Heart
DR8 0.00 dB -9.62 dB 3:30 02-To The Sea
DR8 0.00 dB -11.05 dB 3:31 03-No Good With Faces
DR7 0.00 dB -9.35 dB 3:58 04-At Or With Me
DR13 0.00 dB -16.12 dB 0:58 05-When I Look Up
DR8 0.00 dB -9.02 dB 3:06 06-From The Clouds
DR14 0.00 dB -17.12 dB 2:21 07-My Little Girl
DR9 0.00 dB -10.79 dB 3:12 08-Turn Your Love
DR7 0.00 dB -9.10 dB 3:49 09-The Upsetter
DR8 0.00 dB -9.58 dB 4:03 10-Red Wine, Mistakes, Mythology
DR8 0.00 dB -10.19 dB 3:20 11-Pictures Of People Taking Pictures
DR13 0.00 dB -15.73 dB 2:54 12-Anything But The Truth
DR8 0.00 dB -9.72 dB 3:40 13-Only The Ocean
––––––––––––––––––––––––––––––––––––––––

Number of tracks: 13
Official DR value: DR9

Samplerate: 96000 Hz
Channels: 2
Bits per sample: 24
Bitrate: 2882 kbps
Codec: FLAC
================================================================================


Thanks to the Original customer!