Jack Johnson - All The Light Above It Too (2017) [Official Digital Download 24/96]

Posted By: delpotro
Jack Johnson - All The Light Above It Too (2017) [Official Digital Download 24/96]

Jack Johnson - All The Light Above It Too (2017)
FLAC (tracks) 24-bit/96 kHz | Time - 38:06 minutes | 750 MB
Studio Master, Official Digital Download | Artwork: Front Cover

Jack Johnson returns with his 8th album 'All The Light Above It Too' releasing on 9/8. The album is being led by first single 'My Mind Is For Sale' which will be impacting radio this July, followed by a run of North American tour dates. Jack will also embark on a run of dates in the Southeast following album release. The press anticipation on the music is massive with early support from Rolling Stone, NPR, Coastal Living, Surfer, SiriusXM and forthcoming TV bookings around album release.

"This album shares what has been on my mind during the past year or so. A year in which I sailed through the North Atlantic Gyre for a documentary about plastic pollution in the ocean. A year in which Trump was elected as the President of the United States. A year in which I camped, surfed, got stitches, explored, dreamed, shared time and endless conversations with my family and friends … all of which inspired these songs. I usually make sketches of the songs first then set up a time to actually record the album. This time around the original sketches became the final versions. I didn’t want to lose any of the spirit that a song has in its rawest form."
Tracklist:
1 Subplots
2 You Can't Control It
3 Sunsets For Somebody Else
4 My Mind Is For Sale
5 Daybreaks
6 Big Sur
7 Love Song #16
8 Is One Moon Enough?
9 Gather
10 Fragments (From the Film ''The Smog of the Sea'')

foobar2000 1.3.7 / Замер динамического диапазона (DR) 1.1.1
Дата отчёта: 2017-09-10 15:19:59
––––––––––––––––––––––––––––––––––––––––
Анализ: Jack Johnson / All the Light Above It Too
––––––––––––––––––––––––––––––––––––––––
DR Пики RMS Продолжительность трека
––––––––––––––––––––––––––––––––––––––––
DR6 0.00 дБ -8.84 дБ 4:29 01-Subplots
DR6 0.00 дБ -8.77 дБ 4:09 02-You Can't Control It
DR9 0.00 дБ -11.31 дБ 3:30 03-Sunsets For Somebody Else
DR6 0.00 дБ -8.38 дБ 4:00 04-My Mind Is For Sale
DR8 0.00 дБ -10.27 дБ 4:01 05-Daybreaks
DR6 0.00 дБ -8.89 дБ 2:53 06-Big Sur
DR9 0.00 дБ -11.26 дБ 3:02 07-Love Song #16
DR7 0.00 дБ -9.13 дБ 4:11 08-Is One Moon Enough?
DR8 0.00 дБ -9.97 дБ 4:15 09-Gather
DR12 0.00 дБ -14.11 дБ 3:41 10-Fragments (From The Film "The Smog Of The Sea")
––––––––––––––––––––––––––––––––––––––––
Количество треков: 10
Реальные значения DR: DR8
Частота: 96000 Гц
Каналов: 2
Разрядность: 24
Битрейт: 2610 кбит/с
Кодек: FLAC
================================================================================

Thanks to the Original customer dotodot500 !