Jean-Michel Jarre - Chronology (1993/2015) [Official Digital Download]

Posted By: HDV
Jean-Michel Jarre - Chronology (1993/2015) [Official Digital Download]

Jean-Michel Jarre - Chronology (1993/2015)
FLAC (tracks) 24-bit/48 kHz | Time - 41:50 minutes | 545 MB
Studio Master, Official Digital Download | Artwork: Front cover

For fans of Jean-Michel Jarre, Chronologie contains more of Jarre's proven ability to blend familiar sounds in the New Music tradition into unusual, inventive compositions. The uninitiated will find Chronologie's blend of 19th Century classical musical themes with pop, rave and rap sounds downright danceable. Many of the pieces begin with a classical sound – in one song it's deeply resonating pipe organ – and almost invariably pick up the tempo quickly and slide right into a Gloria Estefan beat.

Tracklist:

01 - Chronology, Pt. 1
02 - Chronology, Pt. 2
03 - Chronology, Pt. 3
04 - Chronology, Pt. 4
05 - Chronology, Pt. 5
06 - Chronology, Pt. 6
07 - Chronology, Pt. 7
08 - Chronology, Pt. 8

Analyzed: Jean-Michel Jarre / Chronology
––––––––––––––––––––––––––––––––––––––––

DR Peak RMS Duration Track
––––––––––––––––––––––––––––––––––––––––
DR9 -1.23 dB -12.82 dB 11:00 01-Chronology, Pt. 1
DR8 -1.20 dB -11.16 dB 6:05 02-Chronology, Pt. 2
DR9 -1.23 dB -12.49 dB 4:00 03-Chronology, Pt. 3
DR7 -1.20 dB -8.63 dB 3:59 04-Chronology, Pt. 4
DR7 -1.20 dB -11.02 dB 5:35 05-Chronology, Pt. 5
DR7 -1.20 dB -9.13 dB 3:46 06-Chronology, Pt. 6
DR11 -2.14 dB -16.74 dB 2:17 07-Chronology, Pt. 7
DR7 -1.20 dB -9.89 dB 5:09 08-Chronology, Pt. 8
––––––––––––––––––––––––––––––––––––––––

Number of tracks: 8
Official DR value: DR8

Samplerate: 48000 Hz
Channels: 2
Bits per sample: 24
Bitrate: 1732 kbps
Codec: FLAC
================================================================================


Thanks to the Original customer!