Jean-Michel Jarre - Rendez-Vous (1986/2015) [Official Digital Download]

Posted By: HDV
Jean-Michel Jarre - Rendez-Vous (1986/2015) [Official Digital Download]

Jean-Michel Jarre - Rendez-Vous (1986/2015)
FLAC (tracks) 24-bit/48 kHz | Time - 35:08 minutes | 452 MB
Studio Master, Official Digital Download | Artwork: Front cover

"Rendez-vous" is the eighth studio album by electronic musician and composer Jean-Michel Jarre released in April 1986. It sold some three million copies worldwide and remains Jarre's longest-running chart album in both the U.S. and UK, with a 20-week run in the U.S. and an impressive 38 week run in the UK.

Just after his live performance in Houston to celebrate NASA's anniversary, Jean-Michel Jarre released Rendez-Vous, an appropriately cosmic-sounding album of glittering synth pop. It consists of the same music heard at the Houston concert and shows Jarre moving closer to conventional rock territory, though still with his distinct blueprint. The final track, "Last Rendez-Vous: Ron's Piece," was composed by Jarre for astronaut Ron McNair and was intended to be the first musical piece played and recorded in space. McNair's historic duty was cut short, however, by the Challenger shuttle disaster of January 1986.

Tracklist:

01 - First Rendez-Vous
02 - Second Rendez-Vous
03 - Third Rendez-Vous
04 - Fourth Rendez-Vous
05 - Fifth Rendez-Vous
06 - Last Rendez-Vous

Analyzed: Jean-Michel Jarre / Rendez-Vous
––––––––––––––––––––––––––––––––––––––––

DR Peak RMS Duration Track
––––––––––––––––––––––––––––––––––––––––
DR11 -0.91 dB -13.95 dB 2:54 01-First Rendez-Vous
DR8 -0.87 dB -10.91 dB 10:58 02-Second Rendez-Vous
DR8 -0.87 dB -10.75 dB 3:31 03-Third Rendez-Vous
DR7 -0.83 dB -9.08 dB 4:02 04-Fourth Rendez-Vous
DR8 -0.83 dB -12.07 dB 7:41 05-Fifth Rendez-Vous
DR8 -0.90 dB -11.46 dB 6:03 06-Last Rendez-Vous
––––––––––––––––––––––––––––––––––––––––

Number of tracks: 6
Official DR value: DR8

Samplerate: 48000 Hz
Channels: 2
Bits per sample: 24
Bitrate: 1681 kbps
Codec: FLAC
================================================================================


Thanks to the Original customer!