Jeff Beck - There And Back (1980/2013) [Official Digital Download 24-bit/96kHz]

Posted By: HDV
Jeff Beck - There And Back (1980/2013) [Official Digital Download 24-bit/96kHz]

Jeff Beck - There And Back (1980/1986/2013)
FLAC (tracks) 24-bit/96 kHz | Time - 35:40 minutes | 756 MB
Studio Master, Official Digital Download | Artwork: Front cover

„Blow By Blow“, „Wired“ and „Truth“ may be Beck's best-known albums, but 1980's „There And Back“ is probably his most underrated and oft-overlooked work. Beck's guitar playing is still exceptional, and his six-string skills again take center stage on this third vocal-less album in a row. 'The Pump' is an absolute Beck classic, while Beck's muscular playing on 'El Becko,' 'Space Boogie,' and 'The Final Peace' is simply awesome. Another key ingredient to the album's success is the superb drumming of session ace Simon Philips, especially on the aforementioned 'Space Boogie'. The brilliant guitar shredder truly throws down some of his classiest and hardest driving repertoire for this amazing career album.

There and Back, Jeff Beck's first new studio album in four years, found him moving from old keyboard partner Jan Hammer (three tracks) to new one Tony Hymas (five), which turned out to be the difference between competition and support. Hence, the second side of this instrumental album is more engaging and less of a funk-fusion extravaganza than most of the first. If it were anybody else, you'd say that this was a transitional album, but this was the only studio album Beck released between 1976 and 1985, which makes it more like an unexpected Christmas letter from an old friend: "Everything's fine, still playing guitar."

Tracklist:

01 - Star Cycle
02 - Too Much to Lose
03 - You Never Know
04 - The Pump
05 - El Becko
06 - The Golden Road
07 - Space Boogie
08 - The Final Peace

Analyzed: Jeff Beck / There And Back
––––––––––––––––––––––––––––––––––––––––

DR Peak RMS Duration Track
––––––––––––––––––––––––––––––––––––––––
DR13 -0.11 dB -15.36 dB 4:59 01-Star Cycle
DR14 0.00 dB -16.46 dB 3:00 02-Too Much to Lose
DR12 0.00 dB -13.50 dB 4:05 03-You Never Know
DR13 0.00 dB -16.29 dB 5:49 04-The Pump
DR12 0.00 dB -14.33 dB 4:03 05-El Becko
DR13 0.00 dB -17.54 dB 4:57 06-The Golden Road
DR12 0.00 dB -13.67 dB 5:06 07-Space Boogie
DR11 -4.81 dB -18.78 dB 3:42 08-The Final Peace
––––––––––––––––––––––––––––––––––––––––

Number of tracks: 8
Official DR value: DR13

Samplerate: 96000 Hz
Channels: 2
Bits per sample: 24
Bitrate: 2727 kbps
Codec: FLAC
================================================================================


Thanks to the Original customer!