Subcategories

The Jim Hall Quartet - All Across The City (1989) [Reissue 2003] {2.0 & 5.1} PS3 ISO + Hi-Res FLAC {RE-UP}

Posted By: HDAtall
The Jim Hall Quartet - All Across The City (1989) [Reissue 2003] {2.0 & 5.1} PS3 ISO + Hi-Res FLAC {RE-UP}

The Jim Hall Quartet - All Across The City (1989) [Reissue 2003]
PS3 Rip | SACD ISO | DST64 2.0 & 5.1 > 1-bit/2.8224 MHz | 57:05 minutes | Scans included | 4,03 GB
or FLAC 2.0 Stereo (converted with foobar2000 to tracks) 24bit/88,2 kHz | Full Scans included | 1,07 GB

Jim Hall's successful blend of contemporary and mainstream jazz should appeal to both camps on this well-crafted album. Hall displays the subtle quiet lyricism that makes his guitar sound instantly identifiable. Gil Goldstein is a perfect choice on keyboards, because he uses synthesizer only to color rather than overpower a song, while avoiding schmaltz. Both "Beja-Flor" and the title track benefit from his contributions. Though his piano is frequently in the background, it matches Hall's hushed, effective guitar lines. Bassist Steve LaSpina and drummer Terry Clarke frequently lay out during the introductions and then enter to add either gentle shadings or full steam, if needed. One of Jim Hall's best albums.

Tracklist:

01. Beija-Flor
02. Bemsha Swing
03. Prelude to a Kiss
04. Young One (For Debra)
05. R.E.M. State
06. Jane
07. All Across the City
08. Drop Shot
09. How Deep Is the Ocean?
10. Something Tells Me
11. Big Blues

foobar2000 1.3.2 / Dynamic Range Meter 1.1.1

––––––––––––––––––––––––––––––––––––––––
Analyzed: The Jim Hall Quartet / All Across The City
––––––––––––––––––––––––––––––––––––––––

DR Peak RMS Duration Track
––––––––––––––––––––––––––––––––––––––––
DR13 -10.27 dB -30.90 dB 6:30 01-Beija-Flor
DR13 -7.18 dB -30.35 dB 5:09 02-Bemsha Swing
DR12 -15.67 dB -34.10 dB 4:48 03-Prelude to a Kiss
DR12 -16.10 dB -33.44 dB 4:24 04-Young One (For Debra)
DR14 -8.96 dB -28.78 dB 5:32 05-R.E.M. State
DR13 -10.66 dB -31.92 dB 4:56 06-Jane
DR13 -15.15 dB -34.70 dB 5:26 07-All Across the City
DR13 -7.11 dB -26.54 dB 5:29 08-Drop Shot
DR13 -11.47 dB -30.43 dB 3:26 09-How Deep Is the Ocean?
DR13 -15.91 dB -35.51 dB 4:57 10-Something Tells Me
DR14 -7.67 dB -30.32 dB 6:26 11-Big Blues
––––––––––––––––––––––––––––––––––––––––

Number of tracks: 11
Official DR value: DR13

Samplerate: 2822400 Hz / PCM Samplerate: 88200 Hz
Channels: 6
Bits per sample: 24
Bitrate: 16934 kbps
Codec: DST64
================================================================================

––––––––––––––––––––––––––––––––––––––––
Analyzed: The Jim Hall Quartet / All Across The City
––––––––––––––––––––––––––––––––––––––––

DR Peak RMS Duration Track
––––––––––––––––––––––––––––––––––––––––
DR13 -9.96 dB -27.73 dB 6:30 01-Beija-Flor
DR14 -6.70 dB -25.98 dB 5:09 02-Bemsha Swing
DR11 -13.62 dB -28.66 dB 4:48 03-Prelude to a Kiss
DR11 -11.59 dB -26.65 dB 4:24 04-Young One (For Debra)
DR12 -9.07 dB -24.26 dB 5:32 05-R.E.M. State
DR12 -10.86 dB -27.04 dB 4:56 06-Jane
DR12 -11.31 dB -28.43 dB 5:26 07-All Across the City
DR12 -8.66 dB -23.70 dB 5:29 08-Drop Shot
DR12 -11.57 dB -26.69 dB 3:26 09-How Deep Is the Ocean?
DR13 -12.86 dB -28.75 dB 4:57 10-Something Tells Me
DR12 -10.79 dB -25.92 dB 6:26 11-Big Blues
––––––––––––––––––––––––––––––––––––––––

Number of tracks: 11
Official DR value: DR12

Samplerate: 2822400 Hz / PCM Samplerate: 88200 Hz
Channels: 2
Bits per sample: 24
Bitrate: 5645 kbps
Codec: DST64


Thanks to ManWhoCan!
Uncompressed SACD ISO size > 3,83 GB
>
SACD ISO 1
SACD ISO 2
SACD ISO 3
SACD ISO 4
SACD ISO 5

FLAC 1 (Stereo)
FLAC 2 (Stereo)
>