Jimi Hendrix - The Cry Of Love - (1971) - Vinyl - {German Box Set LP 6 of 11} 24-Bit/96kHz + 16-Bit/44kHz

Posted By: vinylhound
Jimi Hendrix - The Cry Of Love - (1971) - Vinyl - {German Box Set LP 6 of 11} 24-Bit/96kHz + 16-Bit/44kHz

Jimi Hendrix - The Cry Of Love (1971)
vinyl rip in 24/96 & 16/44.1 | 852 MB & 245 MB | FLAC | no cue or log (vinyl)
DR Analysis | FSonic & FF | Full LP Artwork | German Box Set LP 6 of 11
Genre: Rock | Polydor Records ~ 2625 038

This box set was released in Germany to commemorate the tenth anniversary of the death of Jimi Hendrix. It contains the European versions of "Are You Experienced", "Axis: Bold As Love", "Electric Ladyland", "Band Of Gypsys", "Isle Of Wight", "The Cry Of Love", "In The West", "War Heroes", "Loose Ends", "Midnight Lightning", & "Crash Landing" plus a 12" single of "Gloria" b/w "Hey Joe". Part 6 of 11 includes "The Cry Of Love". The Cry of Love is a posthumous studio album by Jimi Hendrix, released in February 1971. It was the first Hendrix album released after his death and was engineered, mixed and compiled by Eddie Kramer and Mitch Mitchell. The album cover illustration was by Nancy Reiner. The pairing of The Cry of Love with Rainbow Bridge comprises the bulk of the most complete tracks that Hendrix was intending to release on his next (double) LP, titled either First Rays of the New Rising Sun or Strate Ahead, the title atop the last documented track list found in Hendrix's notes. All songs on the album were written by Hendrix and recorded from late December 1969 through the summer of 1970, except "My Friend". Hendrix' friend Paul Caruso (mistakenly listed as a fictitious 'Gers' on the L.P.) plays harmonica on "My Friend". Mitchell and Kramer's involvement gave the album credibility, and it was well received by fans and critics alike. The album managed to reach #3 in the U.S. and #2 in the UK, and was regarded as the most accurate approximation of Hendrix's final album until First Rays of the New Rising Sun was released in 1997. "Freedom" b/w "Angel" was released as a single in the U.S., but only reached number 59. In the UK, "Angel" b/w "Night Bird Flying" was the single released, though it did not manage to enter the charts.

Jimi Hendrix - The Cry Of Love - (1971) - Vinyl - {German Box Set LP 6 of 11} 24-Bit/96kHz + 16-Bit/44kHz


Track Listing

Side 1

1. Freedom
2. Drifting
3. Ezy Ryder
4. Night Bird Flying
5. My Friend

Side 2

1. Straight Ahead
2. Astro Man
3. Angel
4. In From The Storm
5. Belly Button Window


Musicians:

Jimi Hendrix: lead vocals, guitars, backing vocals on tracks 3 and 9, piano on track 1, production on all tracks except 5
Billy Cox: bass on all tracks except 5 and 10
Mitch Mitchell: drums on all tracks except 3, 5 and 10, posthumous production
Juma Sultan: percussion on tracks 1, 4 and 7
Buddy Miles: drums on track 3
Noel Redding: bass on track 5
The Ghetto Fighters: backing vocals on track 1
Buzzy Linhart: vibraphone on track 2
Billy Armstrong: percussion on track 3
Steve Winwood: backing vocals on track 3
Chris Wood: backing vocals on track 3
Kenny Pine: twelve-string guitar on track 5
Jimmy Mayes: drums on track 5
Stephen Stills: piano on track 5
Paul Caruso: harmonica on track 5
Emeretta Marks: backing vocals on track 9



Technics SL-1200MK2 Turntable
Shure V15VxMR Cartridge
LP Gear SHVN5xMR Super Analogue Stylus
Sonic Bliss Audiophile Turntable Mat
Custom built, all tube phono stage
Creative 0404 USB @ 24 bit / 96khz
Adobe Audition 3.0 for recording software
JBL LSR series studio monitors / subwoofer for playback listening
iZotope RX Advanced 2.02 for any cleaning needed (all done manually)
Adobe Photoshop for scans
mp3tag 2.49 for file tagging
Easy CD-DA Extractor Ultimate 10 v2011.3 for converting files



––––––––––––––––––––––––––––––––––––––––
Analyzed: Jimi Hendrix / The Cry Of Love
––––––––––––––––––––––––––––––––––––––––

DR Peak RMS Duration Track
––––––––––––––––––––––––––––––––––––––––
DR12 -0.05 dB -14.50 dB 3:26 01-Freedom
DR11 -1.13 dB -15.32 dB 3:48 02-Drifting
DR12 -1.36 dB -16.04 dB 4:09 03-Ezy Ryder
DR11 -0.05 dB -13.91 dB 3:52 04-Night Bird Flying
DR12 -3.56 dB -19.07 dB 4:37 05-My Friend
DR12 -1.32 dB -14.83 dB 4:41 06-Straight Ahead
DR11 -1.06 dB -14.69 dB 3:34 07-Astro Man
DR12 -0.05 dB -14.85 dB 4:24 08-Angel
DR11 -1.41 dB -14.15 dB 3:40 09-In From The Storm
DR12 -5.01 dB -22.15 dB 3:35 10-Belly Button Window
––––––––––––––––––––––––––––––––––––––––

Number of tracks: 10
Official DR value: DR12

Samplerate: 96000 Hz
Channels: 2
Bits per sample: 24
Bitrate: 2692 kbps
Codec: FLAC

Jimi Hendrix - The Cry Of Love - (1971) - Vinyl - {German Box Set LP 6 of 11} 24-Bit/96kHz + 16-Bit/44kHz


The files are interchangeable!!!

Please enjoy hearing The Cry Of Love as it should be heard on vinyl!!!
Download

FileSonic

FileFactory

Password

vinyl