Subcategories

Jimi Hendrix - Machine Gun: The Filmore East First Show 12-31-1969 (2016) PS3 ISO + Hi-Res FLAC

Posted By: HDAtall
Jimi Hendrix - Machine Gun: The Filmore East First Show 12-31-1969 (2016) PS3 ISO + Hi-Res FLAC

Jimi Hendrix - Machine Gun: The Filmore East First Show 12-31-1969 "The First Show" (2016)
PS3 Rip | SACD ISO | DSD64 2.0 > 1-bit/2.8224 MHz | 70:17 minutes | Scans included | 2,1 GB
or FLAC(converted with foobar2000 to tracks) 24bit/88,2 kHz | Full Scans included | 1,51 GB
Analogue Productions # CAPP 73962 SA

Well, this is something serious Hendrix collectors have been waiting for. Band of Gypsys famously played a total of four shows 12/31/69 and 1/1/70 at the Fillmore East (two shows each night). This is the complete first set from the first night; their debut live show. Although the original Band of Gypsys album was compiled from the second night, it wasn't because there weren't amazing performances to choose from on the first night. The first couple songs are a bit rough around the edges, but when Jimi goes deep blues with "Hear My Train a Comin'," he really starts feeling it and turns in an absolutely amazing version (that's why it was previously released on Band of Gypsys 2 and Live at the Fillmore East). "Machine Gun" is another stunner. There are significant differences to the lyrics, and the structure of the song is different as well (Billy Cox says both Jimi and Buddy Miles were doing things that weren't done in rehearsals). "Bleeding Heart" is another amazing blues performance leading into two songs that were almost never performed live: "Earth Blues" and "Burning Desire." Throughout the set, the band is absolutely locked in. They aren't just playing; they're clearly listening to each other and Hendrix turns in some scorching guitar. The most interesting thing might be the realization of how much of these sets and songs was improvised by the band, as shown by the differences in "Machine Gun" from night to night. Eddie Kramer deserves credit for a truly excellent mix (and probably some judicious editing on "Changes"). It's not really fair to compare Machine Gun to Band of Gypsys since one is a largely unedited complete performance and the other is the best cuts selected from a couple shows. That said, there are performances here that rival those of the original Band of Gypsys album, and hearing Jimi on his game with great sound will always be welcomed.

Tracklist:

01. Power of Soul
02. Lover Man
03. Hear My Train a Comin'
04. Changes
05. Izabella
06. Machine Gun
07. Stop
08. Ezy Rider
09. Bleeding Heart
10. Earth Blues
11. Burning Desire

Mastered by Bernie Grundman at Bernie Grundman Mastering, Hollywood, CA.

foobar2000 1.3.14 / Dynamic Range Meter 1.1.1

––––––––––––––––––––––––––––––––––––––––
Analyzed: Jimi Hendrix / Machine Gun Jimi Hendrix The Filmore East 12/31/1969 (First Show)
––––––––––––––––––––––––––––––––––––––––

DR Peak RMS Duration Track
––––––––––––––––––––––––––––––––––––––––
DR13 -6.83 dB -21.77 dB 5:30 01-Power of Soul
DR13 -8.22 dB -22.73 dB 3:14 02-Lover Man
DR13 -7.16 dB -22.30 dB 9:06 03-Hear My Train a Comin'
DR12 -7.54 dB -22.78 dB 5:58 04-Changes
DR12 -8.08 dB -21.76 dB 3:29 05-Izabella
DR13 -6.29 dB -22.46 dB 8:54 06-Machine Gun
DR13 -7.16 dB -21.82 dB 5:30 07-Stop
DR13 -7.10 dB -21.53 dB 5:55 08-Ezy Rider
DR13 -6.83 dB -23.29 dB 6:38 09-Bleeding Heart
DR13 -6.72 dB -21.96 dB 6:24 10-Earth Blues
DR12 -7.28 dB -22.79 dB 9:40 11-Burning Desire
––––––––––––––––––––––––––––––––––––––––

Number of tracks: 11
Official DR value: DR13

Samplerate: 2822400 Hz / PCM Samplerate: 88200 Hz
Channels: 2
Bits per sample: 1
Bitrate: 5645 kbps
Codec: DSD64


Thanks to PS³SACD!
Uncompressed SACD ISO size > 2,81 GB
>