Joe Lovano & Dave Douglas / Sound Prints - Live At Monterey Jazz Festival (2015) [Official Digital Download]

Posted By: HDV
Joe Lovano & Dave Douglas / Sound Prints - Live At Monterey Jazz Festival (2015) [Official Digital Download]

Joe Lovano & Dave Douglas / Sound Prints - Live At Monterey Jazz Festival (2015)
FLAC (tracks) 24-bit/48 kHz | Time - 51:53 minutes | 638 MB
Studio Master, Official Digital Download | Artwork: Front cover

Saxophonist Joe Lovano and trumpeter Dave Douglas' release "Live at Monterey Jazz Festival", the debut recording from their co-led quintet Sound Prints featuring pianist Lawrence Fields, bassist Linda Oh and drummer Joey Baron. The album features the debut of two new compositions written for the band by the band's primary inspiration: Wayne Shorter.

Named after Wayne Shorter's classic composition "Footprints," the Joe Lovano and Dave Douglas quintet Sound Prints is a collaborative ensemble born out of the duo's involvement in the 2008 SFJAZZ Collective's tribute concert to legendary jazz saxophonist Shorter. Inspired to continue the creative spark they ignited at that event, saxophonist Lovano and trumpeter Douglas conceived of a group that would play original compositions, as well as new material from Shorter. The group's 2015 concert album, Sound Prints: Live at Monterey Jazz Festival, showcases their debut appearance at the famed jazz event. Joining Lovano and Douglas here are pianist Lawrence Fields, bassist Linda Oh, and drummer Joey Baron. That each of these musicians could easily lead their own band only adds to Sound Prints' depth as an ensemble. However, rather than coming off as a jazz supergroup, Sound Prints feel like an organic unit of like-minded individuals working toward creating something new. Along with the palpable Shorter influence, they also recall the ruminative experimentalism of the late trumpeter Kenny Wheeler and his 5tet from the early '90s. To these ends, cuts like the fractured title track and the rambunctious, stream of conscious "Weatherman," combine the free bop of Ornette Coleman's '60s quartet with the expressive earthiness of Douglas' own work with his Tiny Bell Trio. Similarly, the evocative, bluesy "Spirits" brings to mind late-'60s Miles Davis, while the Latin-esque "Power Ranger" recalls latter-day John Coltrane. Elsewhere, Douglas and Lovano deliver two previously unheard Shorter pieces with the sultry, introspective "To Sail Beyond the Sunset" and the languid "Destination Unknown." Ultimately, Sound Prints walk the line between muscular, tangible post-bop and free-flowing, avant-garde playing; a tantalizing dance that never fails to leave an impression.

Tracklist:

01 - Sound Prints
02 - Sprints
03 - Destination Unknown
04 - To Sail Beyond The Sunset
05 - Weatherman
06 - Power Ranger

Analyzed: Joe Lovano & Dave Douglas / Sound Prints: Live at Monterey Jazz Festival
––––––––––––––––––––––––––––––––––––––––

DR Peak RMS Duration Track
––––––––––––––––––––––––––––––––––––––––
DR11 0.00 dB -14.17 dB 4:38 01-Sound Prints
DR11 0.00 dB -14.06 dB 13:59 02-Sprints
DR11 0.00 dB -13.79 dB 8:32 03-Destination Unknown
DR12 0.00 dB -15.48 dB 10:25 04-To Sail Beyond The Sunset
DR12 0.00 dB -14.34 dB 1:34 05-Weatherman
DR11 0.00 dB -13.98 dB 12:45 06-Power Ranger
––––––––––––––––––––––––––––––––––––––––

Number of tracks: 6
Official DR value: DR11

Samplerate: 48000 Hz
Channels: 2
Bits per sample: 24
Bitrate: 1647 kbps
Codec: FLAC
================================================================================


Thanks to the Original customer!