Subcategories

Joel Frahm Quartet - Live At Smalls (2013) [24-bit/88,2kHz]

Posted By: HDV
Joel Frahm Quartet - Live At Smalls (2013) [24-bit/88,2kHz]

Joel Frahm Quartet - Live At Smalls (2013)
FLAC (tracks) 24-bit/88,2 kHz | Time - 63:32 minutes | 1,31 GB
Studio Master, Official Digital Download | Artwork: Digital booklet

Joel Frahm has been one of the brightest talents on the New York jazz scene for over two decades. His performances on record and live are always a rich and beautiful experience. Recorded February 28th and March 1st of 2011, Live At Smalls illustrates that beauty with crisp sound and soulful musicianship. A great live date that shows Frahm in fine form with marvelous line up including Kurt Rosenwinkel, Joe Martin and Otis Brown III and featuring five Frahm original compositions.

Tracklist:

01 - Short Rack
02 - A Little Extra
03 - What's Your Beat?
04 - Song For Mom
05 - Chelsea Bridge
06 - Alert
07 - Steeplechase

Musicians:
Joel Frahm - tenor sax
Kurt Rosenwinkel - guitar
Joe Martin - trumpet
Otis Brown III - drums

Analyzed: Joel Frahm Quartet / Live at Smalls
––––––––––––––––––––––––––––––––––––––––

DR Peak RMS Duration Track
––––––––––––––––––––––––––––––––––––––––
DR9 -0.70 dB -12.27 dB 11:21 01-Short Rack
DR9 -0.73 dB -12.54 dB 7:05 02-A Little Extra
DR7 -0.73 dB -10.59 dB 9:39 03-What's Your Beat?
DR9 -0.73 dB -11.81 dB 6:40 04-Song For Mom
DR10 -0.73 dB -14.23 dB 10:43 05-Chelsea Bridge
DR9 -0.73 dB -13.40 dB 7:45 06-Alert
DR9 -0.73 dB -11.24 dB 10:19 07-Steeplechase
––––––––––––––––––––––––––––––––––––––––

Number of tracks: 7
Official DR value: DR9

Samplerate: 88200 Hz
Channels: 2
Bits per sample: 24
Bitrate: 2867 kbps
Codec: FLAC
================================================================================


Thanks to the Original customer!