John Barry - Great Movie Sounds Of John Barry (1966/2016) [Official Digital Download 24/192]

Posted By: HDV
John Barry - Great Movie Sounds Of John Barry (1966/2016) [Official Digital Download 24/192]

John Barry - Great Movie Sounds Of John Barry (1966/2016)
FLAC (tracks) 24-bit/192 kHz | Time - 38:29 minutes | 1,51 GB
Studio Master, Official Digital Download | Artwork: Front cover

"Great Movie Sounds Of John Barry" featuring the music from James Bond films and one with selections from other key Barry-scored movies including The Knack…And How To Get It, Born Free, The Ipcress File and Seance On A Wet Afternoon.

John Barry was one of the best-known composers of soundtrack music of the late 20th and early 21st centuries, but his career carried him through a multitude of music genres and styles. He was best-known in film in connection with his work on the James Bond pictures, but Barry was also the holder of five Academy Awards, none of them for the Bond movies. Born Free (for which he won Oscars for Best Score and Best Song), The Lion in Winter, Out of Africa, and Dances with Wolves are hardly unknown films or scores. Additionally, from 1957 until the early '60s as leader of the John Barry Seven, Barry was one of the best-known figures in popular music and early rock & roll in England.

Tracklist:

01 - Thunderball
02 - 0077 (from 'From Russia With Love')
03 - Goldfinger
04 - Mr. Kiss Kiss Bang Bang (from 'Thunderball')
05 - From Russia with Love
06 - The James Bond Theme
07 - The Chase
08 - Theme from King Rat
09 - The Knack
10 - Seance on a Wet Afternoon
11 - Ipcress File
12 - Theme from Born Free

Produced by John Barry.

Analyzed: John Barry / Great Movie Sounds of John Barry
––––––––––––––––––––––––––––––––––––––––

DR Peak RMS Duration Track
––––––––––––––––––––––––––––––––––––––––
DR10 -0.95 dB -15.47 dB 3:17 01-Thunderball
DR10 -1.22 dB -14.57 dB 2:17 02-007
DR10 -1.03 dB -14.90 dB 4:27 03-Goldfinger
DR11 -2.76 dB -18.02 dB 3:17 04-Mr. Kiss Kiss Bang Bang
DR10 -0.76 dB -14.74 dB 2:39 05-From Russia with Love
DR10 0.00 dB -14.90 dB 2:50 06-The James Bond Theme
DR10 -0.67 dB -16.83 dB 3:18 07-The Chase
DR13 -4.06 dB -21.63 dB 4:18 08-Theme from King Rat
DR10 -0.79 dB -16.24 dB 2:57 09-The Knack
DR8 -6.05 dB -18.48 dB 2:23 10-Seance on a Wet Afternoon
DR11 -0.81 dB -16.99 dB 3:57 11-Ipcress File
DR8 -2.09 dB -15.99 dB 2:48 12-Theme from Born Free
––––––––––––––––––––––––––––––––––––––––

Number of tracks: 12
Official DR value: DR10

Samplerate: 192000 Hz
Channels: 2
Bits per sample: 24
Bitrate: 5249 kbps
Codec: FLAC
================================================================================


Thanks to the Original customer!