John Coltrane - Black Pearls (1964/2016) [Official Digital Download 24bit/96kHz]

Posted By: HDV
John Coltrane - Black Pearls (1964/2016) [Official Digital Download 24bit/96kHz]

John Coltrane - Black Pearls (1964/2016)
FLAC (tracks) 24 bit/96 kHz | Time - 38:49 minutes | 978 MB
Studio Master, Official Digital Download | Artwork: Digital booklet

This album was recorded in the late 1950s but not released until 1964 to capitalize on John Coltrane's ever-increasing fame and success. Essentially an improvised extended jam session with Donald Byrd on trumpet, Red Garland on piano and drummer Art Taylor, this epitomizes Coltrane's trademark "sheets of sound".

As is often the case with an artist as prolific as John Coltrane, not every release can be considered as essential. Black Pearls seems a bit ambiguous when placed in a more historical context. It was only three days later that Coltrane participated not as a leader, but rather a member, of the Miles Davis Sextet that recorded "Stella By Starlight" and "On Green Dolphin Street." There is an obvious disparity between these three mostly improvised and lengthy jams and the Davis session. This is in no way to insinuate that Coltrane's performance is anything less than par. Black Pearls indeed captures Coltrane at the height of perfecting the intense volley that would garner the name "sheets of sound." Featuring Donald Byrd (trumpet) and the Red Garland Trio – Garland (piano), Paul Chambers (bass), and Art Taylor (drums) – this is the same quintet that had mightily contributed to Lush Life and The Believers, as well as The Last Trane. This session would be their last together. The title track is a mid-tempo bop number that quite frankly fails to make a great melodic impact. It's not until Coltrane's indomitable solo that a direction is found and, for a short while, remains focused. Once the reins are passed to Byrd, Garland, Chambers, and to a lesser extent Taylor, the song meanders through some fairly vapid changes. Fortunately, the soloing from Byrd is more direct and is able to build and support Coltrane's equally impressive display. The difference is immeasurable as no holds are barred from Garland or Taylor – who is arguably at his prime. All told, this performance is well worth the price of admission. At 18-plus minutes, "Sweet Sapphire Blues" (penned by Prestige Records owner Robert Weinstock) is the longest track on Black Pearls. It is in essence a 12-bar blues jam. Coltrane's double- and triple-time solo is primal within this setting. The overemphatic backbeat allows for more group interaction, yielding a full and well-rounded union among the musicians that was sadly absent from the opening track.

Tracklist:

01 - Black Pearls
02 - Lover Come Back To Me
03 - Sweet Sapphire Blues

Produced by Bob Weinstock. Engineered by Rudy Van Gelder.
Recorded on May 23, 1958 at Van Gelder Studio, Hackensack, NJ.
Digitally Remastered.

Musicians:
John Coltrane - tenor saxophone
Donald Byrd - trumpet
Red Garland - piano
Paul Chambers - bass
Art Taylor - drums

Analyzed: John Coltrane / Black Pearls
––––––––––––––––––––––––––––––––––––––––

DR Peak RMS Duration Track
––––––––––––––––––––––––––––––––––––––––
DR13 -0.10 dB -15.37 dB 13:10 01-Black Pearls
DR12 -0.08 dB -14.48 dB 7:27 02-Lover Come Back To Me
DR13 -0.08 dB -15.47 dB 18:11 03-Sweet Sapphire Blues
––––––––––––––––––––––––––––––––––––––––

Number of tracks: 3
Official DR value: DR13

Samplerate: 96000 Hz
Channels: 2
Bits per sample: 24
Bitrate: 3339 kbps
Codec: FLAC
================================================================================


Thanks to the Original customer!