John Coltrane - John Coltrane Quartet Plays (1965) [APO Remaster 2011] PS3 ISO + Hi-Res FLAC

Posted By: HDAtall
John Coltrane - John Coltrane Quartet Plays (1965) [APO Remaster 2011] PS3 ISO + Hi-Res FLAC

John Coltrane - John Coltrane Quartet Plays (1965) [Analogue Productions 2011]
PS3 Rip | SACD ISO | DSD64 2.0 > 1-bit/2.8224 MHz | 37:59 minutes | Scans included | 1,18 GB
or FLAC(converted with foobar2000 to tracks) 24bit/88,2 kHz | Full Scans included | 896 MB

One of the turning points in the career of John Coltrane came in 1965. The great saxophonist, whose playing was always very explorative and searching, crossed the line into atonality during that year, playing very free improvisations (after stating quick throwaway themes) that were full of passion and fury. This particular studio album has two standards (a stirring "Chim Chim Cheree" and "Nature Boy") along with two recent Coltrane originals ("Brazilia" and "Song of Praise"). Art Davis plays the second bass on "Nature Boy," but otherwise this set (a perfect introduction for listeners to Coltrane's last period) features the classic quartet comprised of the leader, pianist McCoy Tyner, bassist Jimmy Garrison, and drummer Elvin Jones.

Tracklist:

01. Chim Chim Cheree
02. Brazilia
03. Nature Boy
04. Song of Praise

Recorded: track "3" on February 18 / tracks "1,2,4" on May 17, 1965 at Van Gelder Studio, Englewood Cliffs.

Personnel
John Coltrane – tenor & soprano saxophone
McCoy Tyner – piano
Jimmy Garrison – double bass
Art Davis – double bass on "3"
Elvin Jones – drums

foobar2000 1.2.8 / Dynamic Range Meter 1.1.1

––––––––––––––––––––––––––––––––––––––––
Analyzed: John Coltrane / John Coltrane Quartet Plays
––––––––––––––––––––––––––––––––––––––––

DR Peak RMS Duration Track
––––––––––––––––––––––––––––––––––––––––
DR13 -6.46 dB -22.89 dB 7:01 01-Chim Chim Cheree
DR14 -5.27 dB -23.49 dB 12:58 02-Brazilia
DR14 -7.04 dB -23.49 dB 8:04 03-Nature Boy
DR14 -6.52 dB -25.69 dB 9:56 04-Song of Praise
––––––––––––––––––––––––––––––––––––––––

Number of tracks: 4
Official DR value: DR14

Samplerate: 2822400 Hz / PCM Samplerate: 88200 Hz
Channels: 2
Bits per sample: 24
Bitrate: 5645 kbps
Codec: DSD64


Thanks to ManWhoCan!
Uncompressed SACD ISO size > 1,52 GB
>