John Williams, LSO - Star Wars: The Ultimate Digital Collection (2015) [Official Digital Download]

Posted By: HDV
John Williams, LSO - Star Wars: The Ultimate Digital Collection (2015) [Official Digital Download]

John Williams - Star Wars: The Ultimate Digital Collection (2015)
FLAC (tracks) 24-bit/192kHz (44,1 kHz) | Time - 414:07 minutes | 8,51 GB
Studio Master, Official Digital Download | Artwork: Front cover

Star Wars: The Ultimate Digital Collection features a bundle of the six original soundtracks available for the first time as high definition downloads. The most acclaimed and enduring film music in Hollywood history, the original soundtracks of Star Wars Episodes I-VI will be reissued by Sony Classical. All composed by the legendary five-time Oscar-winning composer, John Williams, this unique collection is being reissued after the latest chapter in the saga, Star Wars: The Force Awakens, opens in theaters.

Since Star Wars: Episode IV - A New Hope was released in 1977, composer John Williams' scores have defined the soaring adventure for all six episodes in the saga. Williams won the Academy Award® for Best Original Score for the series' first film and received Oscar® nominations for Star Wars: Episode V The Empire Strikes Back (1980) and Star Wars: Episode VI - Return of the Jedi (1983). His Star Wars music has also won four Grammy Awards®, two BAFTA Awards and a Golden Globe®. Williams continues his association with the Star Wars saga, composing the score for Star Wars: The Force Awakens.

Tracklist -

Episode I: The Phantom Menace (1999) [24bit/44,1kHz]

01 - Star Wars Main Title and the Arrival at Naboo
02 - Duel of The Fates
03 - Anakin's Theme
04 - Jar Jar's Introduction and the Swim to Otoh Gunga
05 - The Sith Spacecraft and the Droid Battle
06 - The Trip to the Naboo Temple and the Audience with Boss Nass
07 - The Arrival at Tatooine and the Flag Parade
08 - He Is the Chosen One
09 - Anakin Defeats Sebulba
10 - Passage Through the Planet Core
11 - Watto's Deal and Kids at Play
12 - Panaka and the Queen's Protectors
13 - Queen Amidala and the Naboo Palace
14 - The Droid Invasion and the Appearance of Darth Maul
15 - Qui-Gon's Noble End
16 - The High Council Meeting and Qui-Gon's Funeral
17 - Augie's Great Municipal Band and End Credits

Episode II: Attack Of The Clones (2002) [24bit/44,1kHz]
01 - Star Wars Main Title and Ambush on Coruscant
02 - Across the Stars (Love Theme from Star Wars Episode II)
03 - Zam the Assassin and the Chase Through Coruscant
04 - Yoda and the Younglings
05 - Departing Coruscant
06 - Anakin and Padmé
07 - Jango's Escape
08 - The Meadow Picnic
09 - Bounty Hunter's Pursuit
10 - Return to Tatooine
11 - The Tusken Camp and the Homestead
12 - Love Pledge and the Arena
13 - Confrontation with Count Dooku and Finale

Episode III: Revenge Of The Sith (2005) [24bit/44,1kHz]
01 - Star Wars and the Revenge of the Sith
02 - Anakin's Dream
03 - Battle of the Heroes
04 - Anakin's Betrayal
05 - General Grievous
06 - Palpatine's Teachings
07 - Grievous and the Droids
08 - Padme's Ruminations
09 - Anakin vs. Obi-Wan
10 - Anakin's Dark Deeds
11 - Enter Lord Vader
12 - The Immolation Scene
13 - Grievous Speaks to Lord Sidious
14 - The Birth of the Twins and Padme's Destiny
15 - A New Hope and End Credits

Episode IV: A New Hope (1977) [24bit/192kHz]
01 - Main Title
02 - Imperial Attack
03 - Princess Leia's Theme
04 - The Desert and the Robot Auction
05 - Ben's Death and TIE Fighter Attack
06 - The Little People Work
07 - Rescue of the Princess
08 - Inner City
09 - Cantina Band
10 - The Land of the Sandpeople
11 - Mouse Robot and Blasting Off
12 - The Return Home
13 - The Walls Converge
14 - The Princess Appears
15 - The Last Battle
16 - The Throne Room and End Title

Episode V: The Empire Strikes Back (1980) [24bit/192kHz]
01 - Star Wars (Main Theme)
02 - Yoda's Theme
03 - The Training of a Jedi Knight
04 - The Heroics of Luke and Han
05 - The Imperial March (Darth Vader's Theme)
06 - Departure of Boba Fett
07 - Han Solo and the Princess
08 - Hyperspace
09 - The Battle in the Snow
10 - The Asteroid Field
11 - The City in the Clouds
12 - Rebels at Bay
13 - Yoda and the Force
14 - The Duel
15 - The Magic Tree
16 - Lando's Palace
17 - Finale

Episode VI: Return Of The Jedi (1983) [24bit/192kHz]
01 - Main Title (The Story Continues)
02 - Into the Trap
03 - Luke and Leia
04 - Parade of the Ewoks
05 - Han Solo Returns (At the Court of Jabba the Hutt)
06 - Lapti Nek (Jabba's Palace Band)
07 - The Forest Battle
08 - Rebel Briefing
09 - The Emperor
10 - The Return of the Jedi
11 - Ewok Celebration and Finale

Analyzed: John Williams, London Symphony Orchestra & London Voices / Star Wars: The Ultimate Digital Collection (1-44)
John Williams, London Symphony Orchestra, New London Children's Choir & London Voices / Star Wars: The Ultimate Digital Collection (45)
––––––––––––––––––––––––––––––––––––––––

DR Peak RMS Duration Track
––––––––––––––––––––––––––––––––––––––––
DR11 -0.26 dB -15.35 dB 2:57 01-Star Wars Main Title and the Arrival at Naboo
DR12 -0.60 dB -16.96 dB 4:14 02-Duel of The Fates
DR13 -6.50 dB -25.69 dB 3:09 03-Anakin's Theme
DR14 -2.07 dB -24.82 dB 5:08 04-Jar Jar's Introduction and the Swim to Otoh Gunga
DR12 -0.20 dB -16.07 dB 2:37 05-The Sith Spacecraft and the Droid Battle
DR14 -0.56 dB -20.69 dB 4:07 06-The Trip to the Naboo Temple and the Audience with Boss Nass
DR13 -0.20 dB -18.32 dB 4:04 07-The Arrival at Tatooine and the Flag Parade
DR14 -3.78 dB -25.60 dB 3:53 08-He Is the Chosen One
DR14 -0.20 dB -17.52 dB 4:24 09-Anakin Defeats Sebulba
DR15 -1.11 dB -24.24 dB 4:40 10-Passage Through the Planet Core
DR15 -6.47 dB -26.81 dB 4:57 11-Watto's Deal and Kids at Play
DR14 -0.20 dB -18.03 dB 3:24 12-Panaka and the Queen's Protectors
DR13 -0.20 dB -21.28 dB 4:52 13-Queen Amidala and the Naboo Palace
DR15 -0.60 dB -19.63 dB 5:14 14-The Droid Invasion and the Appearance of Darth Maul
DR14 -1.17 dB -19.91 dB 3:48 15-Qui-Gon's Noble End
DR13 -7.91 dB -27.08 dB 3:09 16-The High Council Meeting and Qui-Gon's Funeral
DR13 -2.18 dB -20.87 dB 3:48 01-Star Wars Main Title and Ambush on Coruscant
DR12 -3.33 dB -21.99 dB 5:33 02-Across the Stars (Love Theme from Star Wars Episode II)
DR16 -0.51 dB -20.66 dB 11:07 03-Zam the Assassin and the Chase Through Coruscant
DR16 -4.58 dB -26.95 dB 3:55 04-Yoda and the Younglings
DR13 -1.89 dB -22.30 dB 1:45 05-Departing Coruscant
DR18 -1.19 dB -28.43 dB 3:56 06-Anakin and Padmé
DR13 -0.72 dB -18.44 dB 3:48 07-Jango's Escape
DR13 -5.97 dB -25.23 dB 4:14 08-The Meadow Picnic
DR13 -1.53 dB -21.92 dB 3:23 09-Bounty Hunter's Pursuit
DR17 -0.62 dB -24.27 dB 6:57 10-Return to Tatooine
DR16 -1.39 dB -25.15 dB 5:55 11-The Tusken Camp and the Homestead
DR14 -0.52 dB -18.78 dB 8:29 12-Love Pledge and the Arena
DR14 -0.51 dB -19.21 dB 10:44 13-Confrontation with Count Dooku and Finale
DR12 -0.60 dB -15.56 dB 7:33 01-Star Wars and the Revenge of the Sith
DR14 -1.09 dB -22.35 dB 4:46 02-Anakin's Dream
DR11 -0.88 dB -15.86 dB 3:42 03-Battle of the Heroes
DR12 -1.33 dB -18.87 dB 4:04 04-Anakin's Betrayal
DR11 -0.60 dB -15.28 dB 4:07 05-General Grievous
DR16 -0.96 dB -23.73 dB 5:25 06-Palpatine's Teachings
DR13 -0.90 dB -18.19 dB 3:28 07-Grievous and the Droids
DR11 -5.95 dB -23.34 dB 3:16 08-Padme's Ruminations
DR12 -0.90 dB -17.56 dB 3:57 09-Anakin vs. Obi-Wan
DR12 -0.90 dB -17.04 dB 4:05 10-Anakin's Dark Deeds
DR13 -1.63 dB -19.25 dB 4:14 11-Enter Lord Vader
DR12 -4.68 dB -21.85 dB 2:42 12-The Immolation Scene
DR13 -0.90 dB -20.62 dB 2:49 13-Grievous Speaks to Lord Sidious
DR13 -2.50 dB -21.71 dB 3:37 14-The Birth of the Twins and Padme's Destiny
DR12 -0.90 dB -16.78 dB 13:07 15-A New Hope and End Credits
DR13 -0.20 dB -17.46 dB 9:39 17-Augie's Great Municipal Band and End Credits
––––––––––––––––––––––––––––––––––––––––

Number of tracks: 45
Official DR value: DR13

Samplerate: 44100 Hz
Channels: 2
Bits per sample: 24
Bitrate: 1375 kbps
Codec: FLAC
================================================================================

––––––––––––––––––––––––––––––––––––––––
Analyzed: John Williams & London Symphony Orchestra / Star Wars: The Ultimate Digital Collection (1-43)
John Williams, London Symphony Orchestra & Michelle Gruska / Star Wars: The Ultimate Digital Collection (44)
––––––––––––––––––––––––––––––––––––––––

DR Peak RMS Duration Track
––––––––––––––––––––––––––––––––––––––––
DR12 -1.54 dB -16.88 dB 5:25 01-Main Title
DR13 -0.31 dB -18.81 dB 6:19 02-Imperial Attack
DR12 -0.97 dB -20.87 dB 4:24 03-Princess Leia's Theme
DR12 -4.46 dB -22.06 dB 2:54 04-The Desert and the Robot Auction
DR13 -1.14 dB -18.61 dB 3:51 05-Ben's Death and TIE Fighter Attack
DR15 -0.97 dB -23.32 dB 4:06 06-The Little People Work
DR12 -0.88 dB -18.27 dB 4:50 07-Rescue of the Princess
DR13 -0.37 dB -20.04 dB 4:16 08-Inner City
DR13 -1.80 dB -18.09 dB 2:47 09-Cantina Band
DR14 -0.29 dB -21.30 dB 2:51 10-The Land of the Sandpeople
DR14 -0.07 dB -19.08 dB 4:04 11-Mouse Robot and Blasting Off
DR13 -2.20 dB -21.01 dB 2:49 12-The Return Home
DR14 -0.14 dB -19.22 dB 4:35 13-The Walls Converge
DR14 -1.53 dB -22.53 dB 4:06 14-The Princess Appears
DR14 -0.20 dB -19.26 dB 12:08 15-The Last Battle
DR12 -0.23 dB -16.62 dB 5:29 16-The Throne Room and End Title
DR12 -0.77 dB -17.17 dB 5:51 01-Star Wars (Main Theme)
DR11 -2.54 dB -19.72 dB 3:31 02-Yoda's Theme
DR12 -9.02 dB -26.97 dB 3:09 03-The Training of a Jedi Knight
DR12 -1.24 dB -17.91 dB 5:58 04-The Heroics of Luke and Han
DR12 -2.44 dB -17.22 dB 3:04 05-The Imperial March (Darth Vader's Theme)
DR11 -2.43 dB -18.19 dB 3:10 06-Departure of Boba Fett
DR12 -1.90 dB -20.71 dB 3:30 07-Han Solo and the Princess
DR12 -0.83 dB -17.83 dB 4:05 08-Hyperspace
DR11 -2.25 dB -16.50 dB 3:50 09-The Battle in the Snow
DR12 -1.15 dB -17.79 dB 4:14 10-The Asteroid Field
DR12 -5.11 dB -23.73 dB 6:34 11-The City in the Clouds
DR13 -0.53 dB -18.47 dB 5:27 12-Rebels at Bay
DR13 -3.01 dB -23.15 dB 4:06 13-Yoda and the Force
DR12 -0.80 dB -18.91 dB 4:05 14-The Duel
DR13 -2.95 dB -22.56 dB 3:36 15-The Magic Tree
DR14 -3.81 dB -24.47 dB 3:57 16-Lando's Palace
DR12 -0.67 dB -17.74 dB 6:30 17-Finale
DR13 -1.17 dB -19.81 dB 5:14 01-Main Title (The Story Continues)
DR12 -0.18 dB -17.29 dB 2:41 02-Into the Trap
DR14 -1.80 dB -23.52 dB 4:51 03-Luke and Leia
DR13 -0.22 dB -18.65 dB 3:28 04-Parade of the Ewoks
DR12 -0.24 dB -18.14 dB 4:14 05-Han Solo Returns (At the Court of Jabba the Hutt)
DR12 -0.69 dB -17.00 dB 4:07 07-The Forest Battle
DR14 -0.77 dB -23.08 dB 2:26 08-Rebel Briefing
DR12 -2.07 dB -19.57 dB 2:46 09-The Emperor
DR12 -0.16 dB -15.79 dB 5:07 10-The Return of the Jedi
DR13 -0.18 dB -16.81 dB 8:04 11-Ewok Celebration and Finale
DR14 -0.40 dB -16.68 dB 2:52 06-Lapti Nek (Jabba's Palace Band)
––––––––––––––––––––––––––––––––––––––––

Number of tracks: 44
Official DR value: DR13

Samplerate: 192000 Hz
Channels: 2
Bits per sample: 24
Bitrate: 4704 kbps
Codec: FLAC
================================================================================


Thanks to the Original customer!

.