Johnny Hodges With Billy Strayhorn And The Orchestra (1962/2011/2014) [DSD64 + FLAC]

Posted By: HDV
Johnny Hodges With Billy Strayhorn And The Orchestra (1962/2011/2014) [DSD64 + FLAC]

Johnny Hodges With Billy Strayhorn And The Orchestra (1962/2011/2014)
DSD64 (.dsf) 1 bit/2,8 MHz | Time - 37:07 minutes | 1,04 GB
FLAC (tracks) 24-bit/88,2 kHz | Time - 37:07 minutes | 726 MB
Studio Master, Official Digital Download | Artwork: Digital booklet

Recorded during the last decade of his long tenure with the Duke Ellington Orchestra, this album finds the great alto saxophonist Johnny Hodges' musical gifts not only intact but stronger than ever. Featuring the Ellington band - with Jimmy Jones on piano and Billy Strayhorn as bandleader and arranger - it is a fascinating program of Ellington remakes, including tome of the orchestra's most familiar numbers, all of which have been given subtle new orchestrations by Strayhorn and melodious new interpretations by Hodges.

Tracklist:

01 - Don't Get Around Much Anymore
02 - I Got It Bad And That Ain't Good
03 - Gal From Joe's
04 - Your Love Has Faded
05 - I'm Just A Lucky So And So
06 - Jeep's Blues
07 - Day Dream
08 - Juice A-Plenty
09 - Azure
10 - Tailor Made
11 - Stardust

Recorded in 1961.
Mastered by George Marino at Sterling Sound from the original master tapes to vinyl and PCM.
The DSD was sourced from the PCM.

Johnny Hodges, alto saxophone
Billy Strayhorn, arranger, conductor, performer
Cat Anderson, trumpet
Shorty Baker, trumpet
Aaron Bell, bass
Bill Berry, trumpet
Lawrence Brown, trombone
Harry Carney, bass clarinet, baritone saxophone, bass saxophone
Chuck Conors, bass trombone
Paul Gonsalves, tenor saxophone
Jimmy Hamilton, clarinet, tenor saxophone
Quentin Jackson, trombone
Jimmy Jones, piano
Howard McGhee, trumpet
Ed Mullens, trumpet
Russell Procope, clarinet, alto saxophone
Sam Woodyard, drums



Analyzed: Johnny Hodges With Billy Strayhorn And The Orchestra / Johnny Hodges With Billy Strayhorn And The Orchestra
––––––––––––––––––––––––––––––––––––––––

DR Peak RMS Duration Track
––––––––––––––––––––––––––––––––––––––––
DR11 -7.44 dB -22.96 dB 3:03 01-Don't Get Around Much Anymore
DR13 -7.95 dB -24.74 dB 3:40 02-I Got It Bad And That Ain't Good
DR12 -8.39 dB -25.54 dB 2:30 03-Gal From Joe's
DR12 -5.70 dB -23.89 dB 3:03 04-Your Love Has Faded
DR11 -7.42 dB -22.36 dB 3:24 05-I'm Just A Lucky So And So
DR13 -6.63 dB -23.59 dB 3:21 06-Jeep's Blues
DR12 -7.99 dB -23.72 dB 3:59 07-Day Dream
DR12 -6.70 dB -22.71 dB 3:22 08-Juice A-Plenty
DR13 -7.34 dB -24.16 dB 2:37 09-Azure
DR9 -9.65 dB -22.65 dB 3:38 10-Tailor Made
DR12 -8.08 dB -23.92 dB 4:29 11-Stardust
––––––––––––––––––––––––––––––––––––––––

Number of tracks: 11
Official DR value: DR12

Samplerate: 2822400 Hz / PCM Samplerate: 88200 Hz
Channels: 2
Bits per sample: 24
Bitrate: 5645 kbps
Codec: DSD64
================================================================================


Thanks to the Original customer!