Johnny Thunders & The Heartbreakers - L.A.M.F. (The Lost '77 Mixes) [40th Ann Remaster 2017] [Official Digital Download]

Posted By: HDV
Johnny Thunders & The Heartbreakers - L.A.M.F. (The Lost '77 Mixes) [40th Ann Remaster 2017] [Official Digital Download]

Johnny Thunders & The Heartbreakers - L.A.M.F. (The Lost '77 Mixes) [40th Anniversary Remaster 2017]
FLAC (tracks) 24-bit/44,1 kHz | Time - 40:28 minutes | 501 MB
Studio Master, Official Digital Download | Artwork: Front cover

The Heartbreakers' "L.A.M.F. (Like A Mother Fucker)" is hailed as one of the classic punk albums. Formed by New York Dolls' Johnny Thunders and Jerry Nolan in 1975, they influenced the UK punk scene, joining The Sex Pistols, The Damned and The Sex Pistols on the infamous Anarchy Tour. L.A.M.F. was released on Track Records in 1977 to much acclaim, but was marred by a muddy sound, caused by a mastering fault. In '94 Jungle found long-lost original, mud-free sessions and re-compiled the album. Now it reissued in a digital form and subtitled as "40th Anniversary Remaster".

Borrowing inspiration from his old band, the New York Dolls, along with Chuck Berry, Keith Richards, the Ramones, and heroin, Thunders & the Heartbreakers' junkie antics translate well to disc. Songs like "One Track Mind," "Chinese Rocks," and "Pirate Love" are great examples of these influences. Although the Heartbreakers were not as lyrically intuitive as ex-member Richard Hell or Television, the music here is the key. Jerry Nolan's steady beats, and Thunders' searing guitar show that the Heartbreakers were no lightweights.

Tracklist:

01 - Born To Lose
02 - Baby Talk
03 - All By Myself
04 - I Wanna Be Loved
05 - It's Not Enough
06 - Chinese Rocks
07 - Get Off The Phone
08 - Pirate Love
09 - One Track Mind
10 - I Love You
11 - Goin' Steady
12 - Let Go
13 - Can't Keep My Eyes On You
14 - Do You Love Me

Analyzed: Johnny Thunders & The Heartbreakers / L.A.M.F. (The Lost '77 Mixes) [40th Anniversary: Remaster]
––––––––––––––––––––––––––––––––––––––––

DR Peak RMS Duration Track
––––––––––––––––––––––––––––––––––––––––
DR9 -0.33 dB -10.70 dB 3:05 01-Born To Lose
DR7 -0.33 dB -8.79 dB 2:23 02-Baby Talk
DR8 -0.33 dB -9.71 dB 2:53 03-All By Myself
DR8 -0.33 dB -9.71 dB 2:42 04-I Wanna Be Loved
DR10 -0.33 dB -11.49 dB 4:12 05-It's Not Enough
DR8 -0.33 dB -10.11 dB 2:56 06-Chinese Rocks
DR7 -0.33 dB -8.31 dB 2:02 07-Get Off The Phone
DR7 -0.26 dB -8.74 dB 3:59 08-Pirate Love
DR9 -0.33 dB -10.04 dB 2:35 09-One Track Mind
DR8 -0.33 dB -10.04 dB 2:24 10-I Love You
DR8 -0.33 dB -8.88 dB 2:44 11-Goin' Steady
DR9 -0.34 dB -10.45 dB 2:27 12-Let Go
DR9 -0.33 dB -10.62 dB 3:46 13-Can't Keep My Eyes On You
DR9 -0.34 dB -10.80 dB 2:20 14-Do You Love Me
––––––––––––––––––––––––––––––––––––––––

Number of tracks: 14
Official DR value: DR8

Samplerate: 44100 Hz
Channels: 2
Bits per sample: 24
Bitrate: 1596 kbps
Codec: FLAC
================================================================================


Thanks to the Original customer!