Jonathan Butler - Living My Dream (2014) [Official Digital Download]

Posted By: HDV
Jonathan Butler - Living My Dream (2014) [Official Digital Download]

Jonathan Butler - Living My Dream (2014)
FLAC (tracks) 24-bit/44,1 kHz | Time - 44:27 minutes | 548 MB
Studio Master, Official Digital Download | Artwork: Front cover

Jonathan Butler's 22nd studio album, 2014's "Living My Dream", showcases the South African-born singer/guitarist/songwriter's distinctive smooth jazz and R&B sound. Joining Butler here are such musical luminaries as bassist Marcus Miller, saxophonist Elan Trotman, guitarist/songwriter Dennis Dodd, Jr., and Butler's daughter, vocalist Jodie Butler, who duets with her father on "Night to Remember".


Living My Dream from South African singer-songwriter and guitarist Jonathan Butler is a bountiful feast of contemporary jazz instrumentals and soul-mined R&B vocal cuts, all original songs he produced and tracked live in the House of Blues studio in Los Angeles. Like Butler’s best material from a diverse, award-winning and chart-topping career that has spanned R&B, jazz, pop and gospel, Living My Dream provides an honest and revealing soulfully-inspired songbook probing the artist’s life and loves: God, family and his homeland. The album includes a reprise of the instrumental tune African Breeze, originally composed by Butler for the 1985 film The Jewel of the Nile starring Michael Douglas, Kathleen Turner and Danny DeVito.

Tracklist:

01 - African Breeze
02 - Living My Dream
03 - Be Still
04 - Let There Be Light
05 - Heart and Soul
06 - Song for You
07 - Catembe
08 - Night to Remember
09 - All About Love
10 - Sweet Serenade
11 - A Prayer

Produced and Arranged by Jonathan Butler.
Recorded & Mixed by Paul Klingberg at House Of Blues Studios, Encino, CA.
Mastered by Steve Hall at Future Disc – Los Angeles, CA.

Musicians:
Jonathan Butler - guitar, vocals
Dennis Dodd - guitar, drum programming
Agape Jerry, Dave Wood - guitar
Katisse Buckingham, Rashawn Ross - horn
Garrett Smith - trombone
Mike Eiya - tenor saxophone
Elan Trotman - saxophone
Dan Lutz, Marcus Miller - bass
Tim Carmon - keyboards
George Duke - piano
Gorden Campbell, Jay Williams - drums
Ramon Yslas - percussion
Aarón Gutiérrez, Antonio Sol - backing vocals

Analyzed: Jonathan Butler / Living My Dream
––––––––––––––––––––––––––––––––––––––––

DR Peak RMS Duration Track
––––––––––––––––––––––––––––––––––––––––
DR8 -1.70 dB -10.96 dB 4:07 01-African Breeze
DR8 -1.70 dB -12.06 dB 4:02 02-Living My Dream
DR9 -1.70 dB -12.77 dB 4:49 03-Be Still
DR8 -1.70 dB -12.79 dB 4:11 04-Let There Be Light
DR8 -1.70 dB -10.95 dB 3:37 05-Heart and Soul
DR8 -1.70 dB -12.25 dB 3:27 06-Song for You
DR9 -1.70 dB -12.41 dB 3:47 07-Catembe
DR8 -1.70 dB -11.84 dB 3:44 08-Night to Remember
DR7 -1.50 dB -11.90 dB 4:04 09-All About Love
DR9 -1.70 dB -13.15 dB 4:38 10-Sweet Serenade
DR9 -1.70 dB -13.44 dB 4:01 11-A Prayer
––––––––––––––––––––––––––––––––––––––––

Number of tracks: 11
Official DR value: DR8

Samplerate: 44100 Hz
Channels: 2
Bits per sample: 24
Bitrate: 1567 kbps
Codec: FLAC
================================================================================


Thanks to the Original customer!