Juicy Connotation - Freshly Squeezed (2016) [Official Digital Download]

Posted By: HDV
Juicy Connotation - Freshly Squeezed (2016) [Official Digital Download]

Juicy Connotation - Freshly Squeezed (2016)
FLAC (tracks) 24-bit/48 kHz | Time - 50:44 minutes | 616 MB
Studio Master, Official Digital Download | Artwork: Front cover

Juicy Connotation is a funk fusion band from Rochester, NY, USA with some seriously juicy vibes and funky beats. "Freshly Squeezed" is he band's first album. These beats range from funk to reggae through jazz and swing. It's all about the juice.


Tracklist:

01 - Intro
02 - If It Ain't Broke
03 - Sweet Tea
04 - Bad Eggs
05 - Eight Forty
06 - Interlude
07 - Traffic
08 - Back At It

Analyzed: Juicy Connotation / Freshly Squeezed
––––––––––––––––––––––––––––––––––––––––

DR Peak RMS Duration Track
––––––––––––––––––––––––––––––––––––––––
DR11 -0.30 dB -13.32 dB 1:30 01-Intro
DR8 -0.30 dB -10.56 dB 6:52 02-If It Ain't Broke
DR9 -0.30 dB -11.85 dB 7:37 03-Sweet Tea
DR11 -0.30 dB -13.51 dB 5:29 04-Bad Eggs
DR9 -0.30 dB -11.47 dB 13:15 05-Eight Forty
DR14 -0.30 dB -20.20 dB 4:35 06-Interlude
DR9 -0.30 dB -10.67 dB 5:31 07-Traffic
DR9 -0.30 dB -10.55 dB 5:55 08-Back At It
––––––––––––––––––––––––––––––––––––––––

Number of tracks: 8
Official DR value: DR10

Samplerate: 48000 Hz
Channels: 2
Bits per sample: 24
Bitrate: 1738 kbps
Codec: FLAC
================================================================================


Thanks to the Original customer!