Subcategories

Julia Hulsmann Trio - Sooner And Later (2017) [Official Digital Download 24-bit/96 kHz]

Posted By: HDV
Julia Hulsmann Trio - Sooner And Later (2017) [Official Digital Download 24-bit/96 kHz]

Julia Hülsmann Trio - Sooner And Later (2017)
FLAC (tracks) 24-bit/96 kHz | Time - 49:33 minutes | 1032 MB
Studio Master, Official Digital Download | Artwork: Digital booklet

Berlin-based pianist Julia Hülsmann returns to the trio format for Sooner And Later, an album which distils the experience of journeys to distant destinations. In the last couple of years Hülsmann, bassist Marc Muellbauer and drummer Heinrich Köbberling have taken their music around the world, from Europe to the North & South America, Central Asia and China, where something special developed. Once again all three members of the trio have contributed compositions to the album. The title of Hulsmann's Thatpujai is an anagram of Jutta Hipp, and its theme is comprised of phrases from the late German jazz pianist's solos. The program is rounded out by a cover of Radiohead's All I Need which, like the Hülsmann-penned tracks J.J., Soon or Mond with their sometimes almost clubby grooves, emphasizes the subtle rhythmic aspects of the trio's music.

After expanding to an instrumental quartet—a quintet, with the vocalist Theo Bleckmann included—pianist Julia Hülsmann returns to a trio formation on her fourth ECM release, Sooner And Later. Bassist Marc Muellbauer and drummer Heinrich Köbberling have been part of that core through the previous three ECM outings, The End of a Summer (2008), Imprint (2011) and A Clear Midnight—Kurt Weill and America (2015) as well through Hülsmann's ACT Music years.

Despite a long, productive career and considerable recognition in Europe, Hülsmann is not well known in the US. A native of Bonn, Germany, she has been playing piano since the age of eleven. After moving to Berlin in the early 1990s, Hülsmann joined a jazz orchestra and later went on to record several albums with her trio and a succession of vocalists. A teacher at the Jazzinstitut Berlin, Muellbauer—a London native—has a broad cross-genre background that includes classical, jazz and tango music. He leads the ensemble Kaleidoscope, originated the Wood & Steel Trio and plays with the Lisbeth Quartet. Köbberling, a German born drummer and educator, has worked with some high profile jazz artists including Aki Takase and Anat Fort and was leader on Pisces (Nabel, 2002) with Marc Johnson, Ben Monder and Matt Renzi.

With more than a decade of collaboration, it shouldn't be surprising that the trio—all composers in their own rite—contribute pieces that are an intrinsic blend of their own strengths and those of the group. The opener, "From Afar" and the subsequent "Thatpujai" are subtle and sophisticated, very much in the vein of more familiar ECM piano trios. A perennial favorite rock source among jazz performers, Radiohead's "All I Need" opens with a beautiful duet from Muellbauer and Hülsmann before Köbberling quietly works his way in and gradually moves the piece up tempo. "You & You," "J.J." and "Later" are more challenging conventions and demonstrate a willingness to push the envelope.

Sooner And Later is an album that grows in appeal with repeated listening. The trio masters interplay and while that dynamic takes precedence over solo time, there are numerous opportunities to appreciate each of the players individually. The quieter moments are warm and enveloping, each with a distinct personality. Where the trio displays their more energetic side, they show a brilliance for creating complex and highly engaging melodies. Sooner And Later is a significant achievement for a trio that had set a high bar, long ago.

Tracklist:

01 - From Afar
02 - Thatpujai
03 - You & You
04 - Biz Joluktuk
05 - All I Need
06 - The Poet (For Ali)
07 - Offen
08 - J.J.
09 - Soon
10 - Later
11 - Der Mond

Produced by Manfred Eicher. Engineered by Jan Erik Kongshaug.
Recorded in September 2016 at Rainbow Studio, Oslo, Norway.

Musicians:
Julia Hülsmann - piano
Marc Muellbauer - double bass
Heinrich Köbberling - drums


Analyzed: Julia Hülsmann Trio / Sooner And Later
––––––––––––––––––––––––––––––––––––––––

DR Peak RMS Duration Track
––––––––––––––––––––––––––––––––––––––––
DR14 -0.20 dB -19.27 dB 3:44 01-From Afar
DR13 -1.63 dB -21.86 dB 4:59 02-Thatpujai
DR13 -0.86 dB -17.51 dB 4:25 03-You & You
DR12 -0.23 dB -19.55 dB 4:07 04-Biz Joluktuk
DR13 -0.20 dB -17.20 dB 4:24 05-All I Need
DR14 -0.20 dB -18.17 dB 5:04 06-The Poet (For Ali)
DR13 -1.79 dB -20.03 dB 4:33 07-Offen
DR14 -0.20 dB -16.53 dB 4:13 08-J.J.
DR14 -0.20 dB -16.27 dB 3:59 09-Soon
DR13 -0.20 dB -16.05 dB 4:28 10-Later
DR11 -0.20 dB -15.37 dB 5:37 11-Der Mond
––––––––––––––––––––––––––––––––––––––––

Number of tracks: 11
Official DR value: DR13

Samplerate: 96000 Hz
Channels: 2
Bits per sample: 24
Bitrate: 2866 kbps
Codec: FLAC
================================================================================


Thanks to the Original customer!

Julia Hülsmann Quartet - In Full View (2013)
Julia Hülsmann Quartet - A Clear Midnight (2015)