Karin Schaupp - Mosaic: Australian Guitar Concertos (2014) [Official Digital Download]

Posted By: HDV
Karin Schaupp - Mosaic: Australian Guitar Concertos (2014) [Official Digital Download]

Karin Schaupp - Mosaic: Australian Guitar Concertos (2014)
FLAC (tracks) 24-bit/44,1 kHz | Time - 75:10 minutes | 717 MB
Studio Master, Official Digital Download | Artwork: Front cover

This marks the first album ever recorded of Australian guitar concertos, starring internationally acclaimed classical guitarist Karin Schaupp with two different orchestras. Schaupp turns her attention to these modern pieces, all composed between 1989 and 1995, by Ross Edwards, Philip Bračanin and Peter Sculthorpe, representing their major works for the instrument. A fourth piece, the inspiration for the album title, is Mosaic for Adrian Walter by Richard Charlton, himself a guitarist.

Karin Schaupp is one of the most outstanding guitarists on the international scene, acclaimed not only for her breathtaking technical mastery, but also for the passion and intensity of her playing. With this album she celebrates the rich and vibrant Australian guitar repertoire, presenting four concertos that create a uniquely Australian musical landscape.

These fine performances, in which Schaupp - is ably accompanied by a variety of Australian orchestras and conductors, like the composers themselves demonstrate an ability not just to describe a landscape in music but to tell its story.

Tracklist:

01 - Mosaic
02 - Concerto for Guitar and Strings, 'Arafura Dances': I. First Maninya
03 - Concerto for Guitar and Strings, 'Arafura Dances': II. Arafura Arioso
04 - Concerto for Guitar and Strings, 'Arafura Dances': III. Second Maninya
05 - Guitar Concerto: I. Allegro assai
06 - Guitar Concerto: II. Doloroso
07 - Guitar Concerto: III. Allegro vivace
08 - Nourlangie

Musicians:
Karin Schaupp - guitar
Tasmanian Symphony Orchestra - Conducted by Benjamin Northey (1) / Conducted by Richard Mills (2-4,8)
Queensland Symphony Orchestra - Conducted by Ronald Spigelman

Analyzed: Karin Schaupp, Queensland Symphony Orchestra & Ronald Spigelman / Mosaic: Australian Guitar Concertos (1-3)
Karin Schaupp, Tasmanian Symphony Orchestra & Benjamin Northey / Mosaic: Australian Guitar Concertos (4)
Karin Schaupp, Tasmanian Symphony Orchestra & Richard Mills / Mosaic: Australian Guitar Concertos (5-8)
––––––––––––––––––––––––––––––––––––––––

DR Peak RMS Duration Track
––––––––––––––––––––––––––––––––––––––––
DR15 -0.42 dB -22.54 dB 8:46 05-Guitar Concerto: I. Allegro assai
DR16 -2.49 dB -24.43 dB 8:29 06-Guitar Concerto: II. Doloroso
DR15 -0.65 dB -20.77 dB 5:41 07-Guitar Concerto: III. Allegro vivace
DR15 -0.03 dB -20.81 dB 12:09 01-Mosaic
DR14 -3.67 dB -21.90 dB 5:43 02-Concerto for Guitar and Strings, 'Arafura Dances': I. First Maninya
DR17 -6.45 dB -28.94 dB 7:38 03-Concerto for Guitar and Strings, 'Arafura Dances': II. Arafura Arioso
DR17 -1.50 dB -23.91 dB 5:25 04-Concerto for Guitar and Strings, 'Arafura Dances': III. Second Maninya
DR16 -0.27 dB -21.75 dB 21:20 08-Nourlangie
––––––––––––––––––––––––––––––––––––––––

Number of tracks: 8
Official DR value: DR16

Samplerate: 44100 Hz
Channels: 2
Bits per sample: 24
Bitrate: 1287 kbps
Codec: FLAC
================================================================================


Thanks to the Original customer!