Kasabian - 48-13 {Deluxe Edition} (2014) [Official Digital Download]

Posted By: HDV
Kasabian - 48-13 {Deluxe Edition} (2014) [Official Digital Download]

Kasabian - 48:13 (2014) [Deluxe Edition]
FLAC (tracks) 24-bit/44,1 kHz | Time - 56:09 minutes | 685 MB
Studio Master, Official Digital Download | Artwork: Front cover

"48:13" is the fifth studio album by English rock band Kasabian. The album, produced by the band's leader, songwriter, guitarist and second vocalist Sergio Pizzorno. The title "48:13" refer the total running time of the standard album edition. This Deluxe Edition features two additional tracks.

While Kasabian kick against the pricks, their audience dances. The band raises a fist, the fans shake a tail feather, but even if they're a Happy Mondays without a current cultural need for a Happy Mondays, the grooving and groovy 48:13 is a great reason to pretend. Named after its total runtime, the album is a lean, mean machine of singalong revolution songs and baggy jeans dance music from folks old enough to be wearing fitted by now, but the hunger to survive and flourish is as palpable as it was on their debut. Maybe it's the loss of fifth member and rhythm guitarist Jay Mehler, but whatever the reason, Kasabian continue to challenge themselves and toss off the big beat sound of 2011's Velociraptor! with returning producer Sergio Pizzorno keeping things tight and upfront. As such, the uptempo strut of "Doomsday" makes a short journey out the speakers, grabs the listener's hand, and heads for the rock-rave dancefloor, while the bass-dropping "Eez-eh" is well aware of EDM's big bottom, even if the sequencer and the spirit all point backwards toward acid house. In 2014, that's rebel music for mums, but if the song's "Everyday Is brutal, now we're all being watched by Google" isn't a middle-class revolt, it's at least middle-class awareness and the out-of-time, out-of-place, full-of-spirit Kasabian play to their strengths, as always.

Tracklist:

01 - Shiva
02 - Bumblebeee
03 - Stevie
04 - Mortis
05 - Doomsday
06 - Treat
07 - Glass
08 - Explodes
09 - Levitation
10 - Clouds
11 - Eez-eh
12 - Bow
13 - S.P.S.
14 - Beanz [Bonus Track]
15 - Gelfling [Bonus Track]

Analyzed: Kasabian / 48:13 (Deluxe Edition)
––––––––––––––––––––––––––––––––––––––––

DR Peak RMS Duration Track
––––––––––––––––––––––––––––––––––––––––
DR11 -3.66 dB -21.99 dB 1:07 01-(shiva)
DR4 0.00 dB -6.79 dB 4:01 02-bumblebeee
DR4 0.00 dB -7.18 dB 4:45 03-stevie
DR10 -6.78 dB -23.39 dB 0:48 04-(mortis)
DR4 0.00 dB -6.33 dB 3:40 05-doomsday
DR6 0.00 dB -8.50 dB 6:53 06-treat
DR7 0.00 dB -9.27 dB 4:48 07-glass
DR6 0.00 dB -9.89 dB 4:18 08-explodes
DR12 -0.61 dB -14.93 dB 1:19 09-(levitation)
DR5 0.00 dB -7.83 dB 4:45 10-clouds
DR6 0.00 dB -7.27 dB 3:00 11-eez-eh
DR5 0.00 dB -8.14 dB 4:27 12-bow
DR8 0.00 dB -10.78 dB 4:22 13-s.p.s.
DR6 0.00 dB -7.17 dB 4:42 14-beanz
DR5 0.00 dB -6.99 dB 3:15 15-gelfling
––––––––––––––––––––––––––––––––––––––––

Number of tracks: 15
Official DR value: DR7

Samplerate: 44100 Hz
Channels: 2
Bits per sample: 24
Bitrate: 1636 kbps
Codec: FLAC
================================================================================


Thanks to the Original customer!

Kasabian - Hi-Res Studio Album Collection