Kate Bush - 50 Words For Snow (2011) [Official Digital Download 24bit/96kHz] RE-UP

Posted By: HDV
Kate Bush - 50 Words For Snow (2011) [Official Digital Download 24bit/96kHz] RE-UP

Kate Bush - 50 Words For Snow (2011)
FLAC (tracks) 24 bit/96 kHz | Time - 65:13 minutes | 1,16 GB
Studio Master, Official Digital Download | Artwork: Digital booklet

50 Words For Snow is the latest release from British singer-songwriter Kate Bush, an artist who has been cited as a source of inspiration from the likes of Tori Amos and Bjork. With her multi-octave vocals and eloquent piano playing, Bush delivers another boundary defining album full of lyrical landscape. The winter themed album features seven new compositions and collaborations with guest musicians: Elton John, Andy Fairweather Low, Stephen Fry and Steve Gadd.

Kate Bush's 50 Words for Snow follows Director's Cut, a dramatically reworked collection of catalog material, by six months. This set is all new, her first such venture since 2005's Aerial. The are only seven songs here, but the album clocks in at an hour. Despite the length of the songs, and perhaps because of them, it is easily the most spacious, sparsely recorded offering in her catalog. Its most prominent sounds are Bush's voice, her acoustic piano, and Steve Gadd's gorgeous drumming – though other instruments appear (as do some minimal classical orchestrations). With songs centered on winter, 50 Words for Snow engages the natural world and myth – both Eastern and Western – and fantasy. It is abstract, without being the least bit difficult to embrace. It commences with "Snowflake," with lead vocals handled by her son Bertie. Bush's piano, crystalline and shimmering in the lower middle register, establishes a harmonic pattern to carry the narrative: the journey of a snowflake from the heavens to a single human being's hand, and in its refrain (sung by Bush), the equal anticipation of the receiver. "Lake Tahoe" features choir singers Luke Roberts and Michael Wood in a Michael Nyman-esque arrangement, introducing Bush's slippery vocal as it relates the tale of a female who drowned in the icy lake and whose spirit now haunts it. Bush's piano and Gadd's kit are the only instruments. "Misty," the set's longest – and strangest – cut, is about a woman's very physical amorous tryst with, bizarrely, a snowman. Despite its unlikely premise, the grain of longing expressed in Bush's voice – with bassist Danny Thompson underscoring it – is convincing. Her jazz piano touches on Vince Guaraldi in its vamp. The subject is so possessed by the object of her desire, the morning's soaked but empty sheets propel her to a window ledge to seek her melted lover in the winter landscape.

"Wild Man," introduced by the sounds of whipping winds, is one of two uptempo tracks here, an electronically pulse-driven, synth-swept paean to the Tibetan Kangchenjunga Demon, or "Yeti." Assisted by the voice of Andy Fairweather Low, its protagonist relates fragments of expedition legends and alleged encounters with the elusive creature. Her subject possesses the gift of wildness itself; she seeks to protect it from the death wish of a world which, through its ignorance, fears it. On "Snowed in at Wheeler Street," Bush is joined in duet by Elton John. Together they deliver a compelling tale of would-be lovers encountering one other in various (re)incarnations through time, only to miss connection at the moment of, or just previous to, contact. Tasteful, elastic electronics and Gadd's tom-toms add texture and drama to the frustration in the singers' voices, creating twinned senses: of urgency and frustration. The title track – the other uptempo number – is orchestrated by loops, guitars, basses, and organic rhythms that push the irrepressible Stephen Fry to narrate 50 words associated with snow in various languages, urgently prodded by Bush. Whether it works as a "song" is an open question. The album closes with "Among Angels," a skeletal ballad populated only by Bush's syncopated piano and voice. 50 Words for Snow is such a strange pop record, it's all but impossible to find peers. While it shares sheer ambition with Scott Walker's The Drift and PJ Harvey's Let England Shake, it sounds like neither; Bush's album is equally startling because its will toward the mysterious and elliptical is balanced by its beguiling accessibility.

Tracklist:

01 - Snowflake
02 - Lake Tahoe
03 - Misty
04 - Wild Man
05 - Snowed In At Wheeler Street
06 - 50 Words For Snow
07 - Among Angels

Analyzed: Kate Bush / 50 Words For Snow
––––––––––––––––––––––––––––––––––––––––

DR Peak RMS Duration Track
––––––––––––––––––––––––––––––––––––––––
DR13 -3.56 dB -20.43 dB 9:47 01-Snowflake
DR14 -0.13 dB -18.56 dB 11:08 02-Lake Tahoe
DR12 -1.70 dB -18.16 dB 13:32 03-Misty
DR16 0.00 dB -17.85 dB 7:17 04-Wild Man
DR13 0.00 dB -17.93 dB 8:05 05-Snowed In At Wheeler Street
DR14 -2.10 dB -18.36 dB 8:31 06-50 Words For Snow
DR12 -4.00 dB -20.72 dB 6:54 07-Among Angels
––––––––––––––––––––––––––––––––––––––––

Number of tracks: 7
Official DR value: DR13

Samplerate: 96000 Hz
Channels: 2
Bits per sample: 24
Bitrate: 2271 kbps
Codec: FLAC
================================================================================


Thanks to the Original customer!