Kazumi Watanabe - Gracim (2013/2016) [Official Digital Download in DSD64 or FLAC 24-bit/96kHz]

Posted By: HDV
Kazumi Watanabe - Gracim (2013/2016) [Official Digital Download in DSD64 or FLAC 24-bit/96kHz]

Kazumi Watanabe - GRACIM (2013/2016)
DSD64 (.dsf) 1 bit/2,8 MHz | Time - 49:33 minutes | 1,34 GB
FLAC (tracks) 24-bit/96 kHz | Time - 49:10 minutes | 1,01 GB
2x Studio Master, Official Digital Download | Artwork: Front cover

Kazumi Watanabe has for the past 20 years been one of the top guitarists in fusion, a rock-oriented player whose furious power does not mask a creative imagination. Watanabe studied guitar at Tokyo's Yamaha Music School and he was a recording artist while still a teenager. In 1979, he formed the group Kylyn and, in 1983, he put together the Mobo band. Several of his recordings have been made available by Gramavision and they show that he ranks up with Al DiMeola (when he is electrified) and Scott Henderson among the pacesetters in the idiom. This album features a special duet featuring Japanese pianist Kimiko Tanigawa.


Tracklist:

01 - Amore from Asterias
02 - Cuore from Asterias
03 - Divertimento from Asterias
04 - Felicita from Asterias
05 - Yume-Ichi-Rin
06 - Puzzle Ring
07 - Violet Sky
08 - Tree
09 - Higo Y Granada (2nd Movement)
10 - Voyage from Le Cygne

Musicians:
Kazumi Watanabe - electric, acoustic and Synthesize guitars, sitar, bass, programming
Kimiko Tanigawa - acoustic piano, keyboards

Note: DSD64 files are originals from Japanese store (2013)
FLAC 24/96 were purchased from Qobuz store (2016)

Analyzed: Kazumi Watanabe / GRACIM
––––––––––––––––––––––––––––––––––––––––

DR Peak RMS Duration Track
––––––––––––––––––––––––––––––––––––––––
DR12 -4.47 dB -18.72 dB 3:29 01-Amore from Asterias
DR10 -4.47 dB -16.62 dB 4:17 02-Cuore from Asterias
DR11 -4.36 dB -16.64 dB 4:54 03-Divertimento from Asterias
DR10 -4.60 dB -17.60 dB 3:18 04-Felicita from Asterias
DR9 -4.43 dB -15.59 dB 4:47 05-Yume-Ichi-Rin
DR13 -4.38 dB -18.67 dB 6:32 06-Puzzle Ring
DR10 -4.76 dB -17.80 dB 5:25 07-Violet Sky
DR10 -4.95 dB -16.96 dB 5:34 08-Tree
DR11 -4.45 dB -18.09 dB 6:05 09-Higo Y Granada~2nd Movement
DR10 -4.78 dB -17.24 dB 5:12 10-Voyage from Le Cygne
––––––––––––––––––––––––––––––––––––––––

Number of tracks: 10
Official DR value: DR11

Samplerate: 2822400 Hz / PCM Samplerate: 88200 Hz
Channels: 2
Bits per sample: 1
Bitrate: 5645 kbps
Codec: DSD64
================================================================================


Analyzed: Kazumi Watanabe / GRACIM
––––––––––––––––––––––––––––––––––––––––

DR Peak RMS Duration Track
––––––––––––––––––––––––––––––––––––––––
DR9 0.00 dB -11.10 dB 3:26 01-Amore from Asterias
DR7 0.00 dB -8.80 dB 4:14 02-Cuore from Asterias
DR7 0.00 dB -8.78 dB 4:51 03-Divertimento from Asterias
DR8 0.00 dB -9.88 dB 3:18 04-Felicita from Asterias
DR6 0.00 dB -7.84 dB 4:45 05-Yume-Ichi-Rin
DR9 0.00 dB -10.83 dB 6:30 06-Puzzle Ring
DR8 0.00 dB -10.19 dB 5:23 07-Violet Sky
DR8 0.00 dB -9.19 dB 5:32 08-Tree
DR8 0.00 dB -10.41 dB 6:03 09-Higo Y Granada -2nd Movement
DR7 0.00 dB -9.32 dB 5:07 10-Voyage from Le Cygne
––––––––––––––––––––––––––––––––––––––––

Number of tracks: 10
Official DR value: DR8

Samplerate: 96000 Hz
Channels: 2
Bits per sample: 24
Bitrate: 2721 kbps
Codec: FLAC
================================================================================


Thanks to the Original customer!

Some more of 'Kazumi Watanabe' in Hi-Res