Kid Ink - Full Speed (2015) [Official Digital Download]

Posted By: HDV
Kid Ink - Full Speed (2015) [Official Digital Download]

Kid Ink - Full Speed (2015)
FLAC (tracks) 24-bit/44,1 kHz | Time - 50:52 minutes | 623 MB
Studio Master, Official Digital Download | Artwork: Front cover

Brian Todd Collins, better known by his stage name Kid Ink, is an American rapper, singer, songwriter and former record producer. On February 3, 2015, he released his third studio album Full Speed, which spawned the successful singles "Body Language", "Hotel", and "Be Real".

A club-worthy artist who's not entirely crass, rapper Kid Ink loves hooks and slick beats above all else, and yet he's always entertaining, sometimes surprisingly nimble with his lyrics, and often comes up with wonderfully odd touches that are inspired by the left field. That latter bit is reflected in the DJ Dahi-produced "Faster," a grinding, post-Yeezus number squeezed through a compressing filter so that it comes out sounding like precog rap-rock. The medium warm "Every City We Go" is risky enough to recast the traptastic Migos as Drake-like dreamers, but "Blunted" is a bigger misstep from the pop side as it borrows some from Migos, and some from Lil B, while forgetting all that makes the Kid unique. Still, with worthy singles "Body Language," "Hotel," and "Be Real" added to the mix, there's much more fire than fodder here, enough to satisfy returning fans along with party people of all flavors.

Tracklist:

01 - What It Feels Like
02 - Faster
03 - Dolo
04 - Body Language
05 - Hotel
06 - Cool Back
07 - Be Real
08 - Every City We Go
09 - Round Here
10 - About Mine
11 - Blunted
12 - Like a Hott Boyy
13 - Show Must Go On
14 - Diamonds & Gold
15 - POV

Analyzed: Kid Ink / Full Speed
––––––––––––––––––––––––––––––––––––––––

DR Peak RMS Duration Track
––––––––––––––––––––––––––––––––––––––––
DR5 0.00 dB -6.08 dB 2:14 01-What It Feels Like
DR5 0.00 dB -6.96 dB 2:27 02-Faster
DR5 0.00 dB -5.46 dB 3:24 03-Dolo
DR6 0.00 dB -7.02 dB 3:26 04-Body Language
DR6 0.00 dB -7.19 dB 3:39 05-Hotel
DR5 0.00 dB -6.87 dB 3:02 06-Cool Back
DR5 0.00 dB -7.27 dB 3:27 07-Be Real
DR5 0.00 dB -6.80 dB 3:52 08-Every City We Go
DR5 0.00 dB -6.48 dB 3:05 09-Round Here
DR5 0.00 dB -6.12 dB 3:42 10-About Mine
DR4 0.00 dB -5.71 dB 3:40 11-Blunted
DR4 0.00 dB -5.31 dB 4:16 12-Like a Hott Boyy
DR3 0.00 dB -5.03 dB 3:27 13-Show Must Go On
DR5 0.00 dB -5.95 dB 3:25 14-Diamonds & Gold
DR6 0.00 dB -6.33 dB 3:46 15-POV
––––––––––––––––––––––––––––––––––––––––

Number of tracks: 15
Official DR value: DR5

Samplerate: 44100 Hz
Channels: 2
Bits per sample: 24
Bitrate: 1605 kbps
Codec: FLAC
================================================================================


Thanks to the Original customer!