Subcategories

Kiefer Sutherland - Down In A Hole (2016) [Official Digital Download]

Posted By: HDV
Kiefer Sutherland - Down In A Hole (2016) [Official Digital Download]

Kiefer Sutherland - Down In A Hole (2016)
FLAC (tracks) 24-bit/44,1 kHz | Time - 44:52 minutes | 554 MB
Studio Master, Official Digital Download | Artwork: Front cover

Down in a Hole is the debut studio album by actor Kiefer Sutherland, produced by his longtime friend Jude Cole from the label Ironworks which Sutherland co-owns. The actor first announced his venture in music in 2015. The album containing 11 songs written by Sutherland and Cole, and made its debut at No. 18 on the Americana/Folk Albums chart and No. 35 on Top Country Albums.

In early 2015 Sutherland played Cole two songs he had written and wanted to record as demos for other artists to record. Cole responded positively to the songs and the album grew organically from those recordings. Two songs became four and four grew into six, until Cole suggested that they make a record. Their collaboration resulted in Kiefer Sutherland’s upcoming debut album: ‘Down In A Hole’. Sutherland says of the 11 tracks that make up the album, "It’s the closest thing I’ve ever had to a journal or diary. All of these songs are pulled from my own personal experiences. There is something very satisfying about being able to look back on my own life, good times and bad, and express those sentiments in music. As much as I have enjoyed the writing and recording process, I am experiencing great joy now being able to play these songs to a live audience, which was something I hadn’t counted on".

Tracklist:

01 - Can't Stay Away
02 - Truth In Your Eyes
03 - I'll Do Anything
04 - Not Enough Whiskey
05 - Going Home
06 - Calling Out Your Name
07 - My Best Friend
08 - Shirley Jean
09 - All She Wrote
10 - Down In A Hole
11 - Gonna Die

Analyzed: Kiefer Sutherland / Down In A Hole
––––––––––––––––––––––––––––––––––––––––

DR Peak RMS Duration Track
––––––––––––––––––––––––––––––––––––––––
DR8 0.00 dB -8.93 dB 3:32 01-Can't Stay Away
DR8 0.00 dB -9.91 dB 4:23 02-Truth In Your Eyes
DR8 0.00 dB -9.86 dB 3:22 03-I'll Do Anything
DR9 0.00 dB -10.45 dB 3:57 04-Not Enough Whiskey
DR8 0.00 dB -8.85 dB 4:26 05-Going Home
DR9 -0.09 dB -10.87 dB 4:26 06-Calling Out Your Name
DR7 -0.03 dB -9.72 dB 4:36 07-My Best Friend
DR8 0.00 dB -10.25 dB 4:17 08-Shirley Jean
DR8 0.00 dB -10.32 dB 4:54 09-All She Wrote
DR7 -0.04 dB -8.31 dB 3:47 10-Down In A Hole
DR7 0.00 dB -9.77 dB 3:10 11-Gonna Die
––––––––––––––––––––––––––––––––––––––––

Number of tracks: 11
Official DR value: DR8

Samplerate: 44100 Hz
Channels: 2
Bits per sample: 24
Bitrate: 1627 kbps
Codec: FLAC
================================================================================


Thanks to the Original customer!