Otto Klemperer, Philharmonia Orchestra - Klemperer conducts Wagner (2012) SACD ISO + Hi-Res FLAC

Posted By: HDAtall
Otto Klemperer, Philharmonia Orchestra - Klemperer conducts Wagner (2012) SACD ISO + Hi-Res FLAC

Otto Klemperer, Philharmonia Orchestra - Klemperer conducts Wagner (2012) [Japan]
3x SACD ISO | DSD64 2.0 > 1-bit/2.8224 MHz | 138:59 minutes | Artwork included | 4,07 GB
or FLAC(converted with foobar2000 to tracks) 24bit/88,2 kHz | Artwork included | 2,8 GB

Klemperer's early 1960s Wagner recordings have long held a treasured place in the catalogue. "Klemperer conducts Wagner", Volume 1 - 3, performed by the Philharmonmia Orchestra conducted by Otto Klemperer - these recordings were recorded in 1960-61 & were originally issued on the Columbia label. Now it was remastered by EMI and reissued on SACD in Japan.

Tracklist

KLEMPERER CONDUCTS WAGNER, VOLUME 1:
01. Rienzi - Overture
02. Der fliegende Hollander - Overture
03. Tannhauser - Overture
04. Lohengrin - Prelude to Act I

foobar2000 1.3.14 / Dynamic Range Meter 1.1.1

––––––––––––––––––––––––––––––––––––––––
Analyzed: OTTO KLEMPERER / KLEMPERER CONDUCTS WAGNER
––––––––––––––––––––––––––––––––––––––––

DR Peak RMS Duration Track
––––––––––––––––––––––––––––––––––––––––
DR9 -6.05 dB -19.36 dB 11:39 01-Rienzi - Overture (2012 Digital Remaster)
DR10 -6.24 dB -21.13 dB 10:53 02-Der fliegende Hollander - Overture (2012 Digital Remaster)
DR10 -6.24 dB -21.40 dB 14:50 03-Tannhauser - Overture (2012 Digital Remaster)
DR12 -5.96 dB -24.82 dB 9:55 04-Lohengrin - Prelude to Act I (2012 Digital Remaster)
––––––––––––––––––––––––––––––––––––––––

Number of tracks: 4
Official DR value: DR10

Samplerate: 2822400 Hz / PCM Samplerate: 88200 Hz
Channels: 2
Bits per sample: 1
Bitrate: 5645 kbps
Codec: DSD64



KLEMPERER CONDUCTS WAGNER, VOLUME 2:
01. Lohengrin - Act III: Prelude
02. Die Meistersinger von Nurnberg - Act I: Prelude
03. Die Meistersinger von Nurnberg - Dance of the Apprentices & Entry of the Masters, Act 3
04. Tristan und Isolde - Prelude and Liebestod
05. Gotterdammerung - Siegfried's Funeral March, Act 3

foobar2000 1.3.14 / Dynamic Range Meter 1.1.1


––––––––––––––––––––––––––––––––––––––––
Analyzed: OTTO KLEMPERER / KLEMPERER CONDUCTS WAGNER (2)
––––––––––––––––––––––––––––––––––––––––

DR Peak RMS Duration Track
––––––––––––––––––––––––––––––––––––––––
DR8 -8.08 dB -21.58 dB 3:05 01-Lohengrin - Act III Prelude (2012 Digital Remaster)
DR9 -6.97 dB -19.86 dB 10:58 02-Die Meistersinger von Nurnberg - Act I Prelude (2012 Digital Remaster)
DR8 -8.98 dB -21.90 dB 6:52 03-Die Meistersinger von Nurnberg - Dance of the Apprentices & Entry of the Masters, Act 3 (2012 Digital Remaster)
DR10 -8.62 dB -25.23 dB 15:48 04-Tristan und Isolde - Prelude and Liebestod (2012 Digital Remaster)
DR8 -8.70 dB -23.10 dB 7:42 05-Gotterdammerung - Siegfried's Funeral March, Act 3 (2012 Digital Remaster)
––––––––––––––––––––––––––––––––––––––––

Number of tracks: 5
Official DR value: DR9

Samplerate: 2822400 Hz / PCM Samplerate: 88200 Hz
Channels: 2
Bits per sample: 1
Bitrate: 5645 kbps
Codec: DSD64



KLEMPERER CONDUCTS MORE WAGNER (VOL. 3):
01. Das Rheingold - Entry of the Gods into Valhalla
02. Die Walkure - Ride of the Valkyries
03. Siegfried - Forest Murmurs
04. Gotterdammerung - Siegfried's Rhine Journey
05. Tannhauser - Prelude to Act III
06. Parsifal - Prelude to Act 1

foobar2000 1.3.14 / Dynamic Range Meter 1.1.1

––––––––––––––––––––––––––––––––––––––––
Analyzed: OTTO KLEMPERER / KLEMPERER CONDUCTS MORE WAGNER
––––––––––––––––––––––––––––––––––––––––

DR Peak RMS Duration Track
––––––––––––––––––––––––––––––––––––––––
DR10 -8.88 dB -25.30 dB 8:17 01-Das Rheingold - Entry of the Gods into Valhalla (2012 Digital Remaster)
DR9 -9.99 dB -21.87 dB 2:55 02-Die Walkure - Ride of the Valkyries (2012 Digital Remaster)
DR11 -11.06 dB -30.09 dB 8:29 03-Siegfried - Forest Murmurs (2012 Digital Remaster)
DR9 -6.90 dB -21.08 dB 6:08 04-Gotterdammerung - Siegfried's Rhine Journey (2012 Digital Remaster)
DR11 -11.08 dB -29.61 dB 8:21 05-Tannhauser - Prelude to Act III (2012 Digital Remaster)
DR12 -8.69 dB -26.45 dB 13:09 06-Parsifal - Prelude to Act 1 (2012 Digital Remaster)
––––––––––––––––––––––––––––––––––––––––

Number of tracks: 6
Official DR value: DR10

Samplerate: 2822400 Hz / PCM Samplerate: 88200 Hz
Channels: 2
Bits per sample: 1
Bitrate: 5645 kbps
Codec: DSD64


Thanks to the Original ripper!
Uncompressed SACD ISO size > 1,89 + 1,78 + 1,89 GB
>