Lee Konitz & The Brazilian Band - Brazilian Serenade (1996) [Japan 2017] SACD ISO + Hi-Res FLAC

Posted By: HDAtall
Lee Konitz & The Brazilian Band - Brazilian Serenade (1996) [Japan 2017] SACD ISO + Hi-Res FLAC

Lee Konitz & The Brazilian Band - Brazilian Serenade (1996) [Japan 2017]
SACD Rip | SACD ISO | DSD64 2.0 > 1-bit/2.8224 MHz | 52:20 minutes | Front/Rear Covers | 1,73 GB
or FLAC(converted with foobar2000 to tracks) 24bit/88,2 kHz | Front/Rear Covers | 1,16 GB

Lee Konitz has long been a versatile jazz musician, adaptable to many different styles. This Brazilian-flavored session is one of two that the alto saxophonist recorded during the mid-'90s for Venus; his session partners include trumpeter Tom Harrell, guitarist Romero Lubambo, pianist David Kikoski (who mostly sticks to electric piano), bassist David Fink, drummer Duduka Da Fonseca, and percussionist Waltinho Anastácio. As expected, Konitz's light sound works well with the Brazilian favorites they perform, with Harrell being a particularly inspired foil for the leader. The works of Antonio Carlos Jobim are well represented, including breezy takes of "Favela" and "Wave." Harrell's lyrical "September" (featuring him in a fine muted solo) and Konitz's "Brazilian Serenade" also fit the mood of this relaxing album very well. This rewarding release is well worth investigating.

Tracklist:

01. Favela
02. Once I Loved
03. Recado Bossa Nova
04. September
05. Dindi
06. Wave
07. Meditation
08. Blazilian Serenade

Produced, Mixed & Mastered by Tetsuo Hara.
Recorded on on March 20-22, 1996 at Sear Sound Recording Studio in New York.
Venus Hyper Magnum Sound Direct Mix. VENUS Japan # VHGD-209.

Personnel
Lee Konitz - alto sax
Tom Harrell - trumpet
Romero Lubambo - guitar
David Kikoski - piano
David Finck - bass
Duduka Dafonseca - drums
Waltinho Anastácio - percussion

foobar2000 1.3.16 / Dynamic Range Meter 1.1.1

––––––––––––––––––––––––––––––––––––––––
Analyzed: LEE KONITZ & THE BRAZILIAN BAND / Brazilian Serenade
––––––––––––––––––––––––––––––––––––––––

DR Peak RMS Duration Track
––––––––––––––––––––––––––––––––––––––––
DR7 -4.53 dB -12.75 dB 7:17 01-Favela
DR6 -4.60 dB -12.53 dB 6:28 02-Once I Loved
DR7 -4.65 dB -12.42 dB 5:20 03-Recado Bossa Nova
DR7 -4.59 dB -13.05 dB 6:02 04-September
DR6 -4.25 dB -12.84 dB 7:16 05-Dindi
DR6 -4.81 dB -12.91 dB 5:39 06-Wave
DR9 -4.94 dB -15.03 dB 6:34 07-Meditation
DR6 -4.83 dB -12.89 dB 7:46 08-Blazilian Serenade
––––––––––––––––––––––––––––––––––––––––

Number of tracks: 8
Official DR value: DR7

Samplerate: 2822400 Hz / PCM Samplerate: 88200 Hz
Channels: 2
Bits per sample: 1
Bitrate: 5645 kbps
Codec: DSD64


Thanks to jazzyman!
Uncompressed SACD ISO size > 2,11 GB
>