Subcategories

Los Indios Tabajaras - Twin Guitars: In A Mood For Lovers (1966/2016) [Official Digital Download 24-bit/192kHz]

Posted By: HDV
Los Indios Tabajaras - Twin Guitars: In A Mood For Lovers (1966/2016) [Official Digital Download 24-bit/192kHz]

Los Indios Tabajaras - Twin Guitars: In A Mood For Lovers (1966/2016)
FLAC (tracks) 24-bit/192 kHz | Time - 28:14 minutes | 999 MB
Studio Master, Official Digital Download | Artwork: Front cover


Certainly the most uncommon duo of Brazilian artists to have a solid international career, Los Índios Tabajaras was formed by the brothers Antenor Moreyra Lima (Muçaperê) and Natalício Moreyra Lima (Erundi). In the U.S. they had success in the early '70s with "Sakura-Sakura," and their biggest hit was the fox trot "Maria Helena," which won second place at the American charts and sold over one-and-a-half million copies. Their 48 LPs also sold millions of copies worldwide, and they toured South, Central, and North America, Asia, and Europe before settling in the U.S.

Tracklist:

01 - Make Believe (From 'Show Boat')
02 - The High and the Mighty (From 'The High and the Mighty')
03 - El Reloj
04 - Some of These Days
05 - Who Can I Turn To (When Nobody Needs Me) (From 'The Roar Of The Greasepaint-The Smell Of The Crowd')
06 - The 3rd Man Theme (From 'The 3rd Man')
07 - The Song Is Ended (But the Melody Lingers On)
08 - Time Was
09 - La Mer
10 - Lagrimas de Sangre
11 - As Time Goes By
12 - (When Your Heart's On Fire) Smoke Gets In Your Eyes

Analyzed: Los Indios Tabajaras / Twin Guitars: In a Mood for Lovers
––––––––––––––––––––––––––––––––––––––––

DR Peak RMS Duration Track
––––––––––––––––––––––––––––––––––––––––
DR13 -1.90 dB -17.99 dB 2:39 01-Make Believe (From 'Show Boat')
DR13 -0.70 dB -17.51 dB 2:15 02-The High and the Mighty (From 'The High and the Mighty')
DR13 -2.54 dB -17.44 dB 2:34 03-El Reloj
DR12 -0.38 dB -16.50 dB 2:37 04-Some of These Days
DR13 -1.99 dB -17.66 dB 2:17 05-Who Can I Turn To (When Nobody Needs Me) (From 'The Roar Of The Greasepaint-The Smell Of The Crowd')
DR11 -2.32 dB -16.45 dB 2:07 06-The 3rd Man Theme (From 'The 3rd Man')
DR13 -1.64 dB -17.55 dB 2:39 07-The Song Is Ended (But the Melody Lingers On)
DR13 -1.64 dB -17.07 dB 2:04 08-Time Was
DR13 -1.71 dB -18.38 dB 2:12 09-La Mer
DR15 -2.78 dB -20.15 dB 1:46 10-Lagrimas de Sangre
DR13 -2.12 dB -17.82 dB 2:32 11-As Time Goes By
DR13 -1.43 dB -18.41 dB 2:32 12-(When Your Heart's On Fire) Smoke Gets In Your Eyes
––––––––––––––––––––––––––––––––––––––––

Number of tracks: 12
Official DR value: DR13

Samplerate: 192000 Hz
Channels: 2
Bits per sample: 24
Bitrate: 4665 kbps
Codec: FLAC
================================================================================


Thanks to the Original customer!