Flute Ensemble LYNX - Flute (2007) [2.0 & 5.1] PS3 ISO + Hi-Res FLAC

Posted By: HDAtall
Flute Ensemble LYNX - Flute (2007) [2.0 & 5.1] PS3 ISO + Hi-Res FLAC

LYNX - Flute (2007) [2.0 & 5.1]
PS3 Rip | SACD ISO | DST64 2.0 & 5.1 > 1-bit/2.8224 MHz | 68:29 minutes | Covers included | 3,61 GB
or FLAC 2.0 Stereo (converted with foobar2000 to tracks) 24bit/88,2 kHz | Covers included | 1,23 GB

Flute Ensemble LYNX - Flute (2007) [2.0 & 5.1] PS3 ISO + Hi-Res FLAC

Tracklist:

01. J.S.Bach: Ouverture - Orchestral Suites No.2 h moll BWV1067
02. J.S.Bach: Rondeau - Orchestral Suites No.2 h moll BWV1067
03. J.S.Bach: Sarabande - Orchestral Suites No.2 h moll BWV1067
04. J.S.Bach: Bourree - Orchestral Suites No.2 h moll BWV1067
05. J.S.Bach: Polonaise - Orchestral Suites No.2 h moll BWV1067
06. J.S.Bach: Menuet - Orchestral Suites No.2 h moll BWV1067
07. J.S.Bach: Badinerie - Orchestral Suites No.2 h moll BWV1067
08. Mozart: Symphony No.25 g moll K.183 - I Allegro con brio
09. Smetana: The Moldau from "My Fatherland"
10. Wagner: Tannhäuser - Overture
11. Tchaikovsky : Symphony No.6 - III Allegro molto Vivace
12. Dvorak: Symphony No.9 - II Largo
13. Beethoven: Symphony No.5 - I Allegro con brio
14. Ravel: Bolero
15. J.S.Bach: Toccata and Fugue d-moll BWV565

foobar2000 1.3.3 / Dynamic Range Meter 1.1.1

––––––––––––––––––––––––––––––––––––––––
Analyzed: LYNX / flute
––––––––––––––––––––––––––––––––––––––––

DR Peak RMS Duration Track
––––––––––––––––––––––––––––––––––––––––
DR12 -12.44 dB -30.29 dB 6:01 01-J.S.Bach: Ouverture / Orchestral Suites No.2 h moll BWV1067
DR12 -13.37 dB -31.83 dB 1:55 02-J.S.Bach: Rondeau / Orchestral Suites No.2 h moll BWV1067
DR11 -13.43 dB -30.88 dB 2:45 03-J.S.Bach: Sarabande /Orchestral Suites No.2 h moll BWV1067
DR12 -12.47 dB -30.87 dB 1:50 04-J.S.Bach: Bourree / Orchestral Suites No.2 h moll BWV1067
DR12 -11.25 dB -29.55 dB 2:49 05-J.S.Bach: Polonaise / Orchestral Suites No.2 h moll BWV1067
DR12 -11.47 dB -30.99 dB 1:13 06-J.S.Bach: Menuet / Orchestral Suites No.2 h moll BWV1067
DR12 -13.29 dB -31.07 dB 1:24 07-J.S.Bach: Badinerie / Orchestral Suites No.2 h moll BWV1067
DR13 -10.31 dB -29.94 dB 5:23 08-Mozart: Symphony No.25 g moll K.183 I Allegro con brio
DR13 -7.46 dB -27.93 dB 7:16 09-Smetana: The Moldau from "My Fatherland"
DR12 -11.49 dB -29.59 dB 4:12 10-Wagner: Tannhäuser Overture
DR13 -5.97 dB -27.47 dB 4:50 11-Tchaikovsky : Symphony No.6 III Allegro molto Vivace
DR14 -8.17 dB -31.22 dB 7:02 12-Dvorak: Symphony No.9 II Largo
DR13 -6.13 dB -25.88 dB 5:59 13-Beethoven: Symphony No.5 I Allegro con brio
DR14 -6.06 dB -28.80 dB 7:21 14-Ravel: Bolero
DR13 -8.24 dB -29.08 dB 8:29 15-J.S.Bach: Toccata and Fugue d-moll BWV565
––––––––––––––––––––––––––––––––––––––––

Number of tracks: 15
Official DR value: DR13

Samplerate: 2822400 Hz / PCM Samplerate: 88200 Hz
Channels: 5
Bits per sample: 24
Bitrate: 14112 kbps
Codec: DST64
================================================================================

––––––––––––––––––––––––––––––––––––––––
Analyzed: LYNX / flute
––––––––––––––––––––––––––––––––––––––––

DR Peak RMS Duration Track
––––––––––––––––––––––––––––––––––––––––
DR12 -11.83 dB -27.16 dB 6:01 01-J.S.Bach: Ouverture / Orchestral Suites No.2 h moll BWV1067
DR13 -12.66 dB -28.68 dB 1:55 02-J.S.Bach: Rondeau / Orchestral Suites No.2 h moll BWV1067
DR12 -12.73 dB -27.78 dB 2:45 03-J.S.Bach: Sarabande /Orchestral Suites No.2 h moll BWV1067
DR12 -12.12 dB -27.74 dB 1:50 04-J.S.Bach: Bourree / Orchestral Suites No.2 h moll BWV1067
DR12 -7.46 dB -26.50 dB 2:49 05-J.S.Bach: Polonaise / Orchestral Suites No.2 h moll BWV1067
DR12 -10.11 dB -27.78 dB 1:13 06-J.S.Bach: Menuet / Orchestral Suites No.2 h moll BWV1067
DR12 -12.83 dB -27.70 dB 1:24 07-J.S.Bach: Badinerie / Orchestral Suites No.2 h moll BWV1067
DR13 -9.15 dB -26.73 dB 5:23 08-Mozart: Symphony No.25 g moll K.183 I Allegro con brio
DR13 -7.24 dB -24.99 dB 7:16 09-Smetana: The Moldau from "My Fatherland"
DR12 -9.24 dB -26.31 dB 4:12 10-Wagner: Tannhäuser Overture
DR13 -6.30 dB -24.65 dB 4:50 11-Tchaikovsky : Symphony No.6 III Allegro molto Vivace
DR14 -8.06 dB -28.24 dB 7:02 12-Dvorak: Symphony No.9 II Largo
DR12 -6.12 dB -22.89 dB 5:59 13-Beethoven: Symphony No.5 I Allegro con brio
DR14 -6.05 dB -25.86 dB 7:21 14-Ravel: Bolero
DR13 -8.37 dB -26.38 dB 8:29 15-J.S.Bach: Toccata and Fugue d-moll BWV565
––––––––––––––––––––––––––––––––––––––––

Number of tracks: 15
Official DR value: DR12

Samplerate: 2822400 Hz / PCM Samplerate: 88200 Hz
Channels: 2
Bits per sample: 24
Bitrate: 5645 kbps
Codec: DST64


Uncompressed SACD ISO size > 3,42 GB
Thanks to "Безымянный Меломан"!
SACD ISO 1
SACD ISO 2
SACD ISO 3
SACD ISO 4
SACD ISO 5

FLAC 1 (Stereo)
FLAC 2 (Stereo)