Marco Ambrosini & Eva-Maria Rusche - Edvard Grieg: Alfedans (2021) [Official Digital Download 24/48]

Posted By: delpotro
Marco Ambrosini & Eva-Maria Rusche - Edvard Grieg: Alfedans (2021) [Official Digital Download 24/48]

Marco Ambrosini & Eva-Maria Rusche - Edvard Grieg: Alfedans (2021)
FLAC (tracks) 24-bit/48 kHz | Front Cover & Digital Booklet | Time - 55:05 minutes | 566 MB
Classical | Label: deutsche harmonia mundi, Official Digital Download

The album arises from an unusual, but extremely convincing symbiosis of two instruments: the nyckelharpa (also called key fiddle), which has survived in Sweden from the Renaissance to this day and has now become an essential part of Scandinavian musical life beyond this country, unfolds through the numerous resonant strings create their fascinating sound with a dazzling overtone spectrum and at the same time a wonderfully warm smoky depth. In connection with the rich color palette of a symphonic organ, Marco Ambrosini, co-founder of the ensemble Oni Wytars and the organist Eva -Maria Rusche take the listener on a Nordic-inspired sound journey in the footsteps of the composer Edvard Grieg.

Tracklist:
1. Marco Ambrosini – 4 Norwegian Dances, Op. 35: I. Allegro marcato (Arr. for Organ & Nyckelharpa) (08:43)
2. Marco Ambrosini – Lyric Pieces, Op. 12, No. 5: Folkevise (Arr. for Organ & Nyckelharpa) (01:40)
3. Eva-Maria Rusche – Lyric Pieces, Op. 38, No. 6: Elegi (Arr. for Organ) (02:38)
4. Marco Ambrosini – Lyric Pieces, Op. 47, No. 4: Halling (Arr. for Organ & Nyckelharpa) (00:47)
5. Eva-Maria Rusche – Lyric Pieces, Op. 12, No. 4: Alfedans (Arr. for Organ) (01:11)
6. Marco Ambrosini – 2 Melodies, Op. 53, No. 2: Det første Møde (Arr. for Organ & Nyckelharpa) (03:04)
7. Eva-Maria Rusche – Lyric Pieces, Op. 38, No. 4: Halling (Arr. for Organ) (00:58)
8. Marco Ambrosini – 9 Songs, Op. 18, No. 8: Rosenknoppen (Arr. for Organ & Nyckelharpa) (01:59)
9. Eva-Maria Rusche – Lyric Pieces, Op. 43, No. 1: Sommerfugl (Arr. for Organ) (02:01)
10. Marco Ambrosini – Melodies of the Heart, Op. 5, No. 3: Jeg elsker Dig! (Arr. for Organ & Nyckelharpa) (02:45)
11. Eva-Maria Rusche – Lyric Pieces, Op. 54, No. 4: Notturno (Arr. for Organ) (03:41)
12. Marco Ambrosini – 4 Norwegian Dances, Op. 35: II. Allegretto tranquillo e grazioso (Arr. for Organ & Nyckelharpa) (01:59)
13. Eva-Maria Rusche – Ballade in G Minor, Op. 24 (Arr. for Organ) (19:10)
14. Marco Ambrosini – 4 Norwegian Dances, Op. 35: III. Allegro moderato alla Marcia (Arr. for Organ & Nyckelharpa) (04:06)

foobar2000 1.4.1 / Dynamic Range Meter 1.1.1
log date: 2021-05-14 11:54:12

––––––––––––––––––––––––––––––––––––––––
Analyzed: Marco Ambrosini & Eva-Maria Rusche / Edvard Grieg: Alfedans
––––––––––––––––––––––––––––––––––––––––

DR Peak RMS Duration Track
––––––––––––––––––––––––––––––––––––––––
DR7 -0.10 dB -11.86 dB 8:45 01-4 Norwegian Dances, Op. 35: I. Allegro marcato (Arr. for Organ & Nyckelharpa)
DR8 -0.10 dB -11.80 dB 1:42 02-Lyric Pieces, Op. 12, No. 5: Folkevise (Arr. for Organ & Nyckelharpa)
DR10 -0.30 dB -13.57 dB 2:38 03-Lyric Pieces, Op. 38, No. 6: Elegi (Arr. for Organ)
DR8 -0.10 dB -11.77 dB 0:48 04-Lyric Pieces, Op. 47, No. 4: Halling (Arr. for Organ & Nyckelharpa)
DR12 -4.68 dB -20.04 dB 1:13 05-Lyric Pieces, Op. 12, No. 4: Alfedans (Arr. for Organ)
DR8 -0.10 dB -12.54 dB 3:06 06-2 Melodies, Op. 53, No. 2: Det første Møde (Arr. for Organ & Nyckelharpa)
DR11 -5.97 dB -22.16 dB 1:00 07-Lyric Pieces, Op. 38, No. 4: Halling (Arr. for Organ)
DR9 -0.10 dB -12.85 dB 2:00 08-9 Songs, Op. 18, No. 8: Rosenknoppen (Arr. for Organ & Nyckelharpa)
DR12 -5.56 dB -21.71 dB 2:04 09-Lyric Pieces, Op. 43, No. 1: Sommerfugl (Arr. for Organ)
DR8 -0.10 dB -11.80 dB 2:47 10-Melodies of the Heart, Op. 5, No. 3: Jeg elsker Dig! (Arr. for Organ & Nyckelharpa)
DR9 -0.30 dB -13.69 dB 3:43 11-Lyric Pieces, Op. 54, No. 4: Notturno (Arr. for Organ)
DR10 -0.10 dB -14.39 dB 2:00 12-4 Norwegian Dances, Op. 35: II. Allegretto tranquillo e grazioso (Arr. for Organ & Nyckelharpa)
DR8 -0.30 dB -14.12 dB 19:12 13-Ballade in G Minor, Op. 24 (Arr. for Organ)
DR8 -0.10 dB -12.67 dB 4:08 14-4 Norwegian Dances, Op. 35: III. Allegro moderato alla Marcia (Arr. for Organ & Nyckelharpa)
––––––––––––––––––––––––––––––––––––––––

Number of tracks: 14
Official DR value: DR9

Samplerate: 48000 Hz
Channels: 2
Bits per sample: 24
Bitrate: 1487 kbps
Codec: FLAC
================================================================================


Thanks to the Original customer!