The Massimo Farao' Afro Cuban Piano Quartet - Blue Bossa (2017) [Japan] SACD ISO + Hi-Res FLAC

Posted By: HDAtall
The Massimo Farao' Afro Cuban Piano Quartet - Blue Bossa (2017) [Japan] SACD ISO + Hi-Res FLAC

The Massimo Farao' Afro Cuban Piano Quartet - Blue Bossa (2017) [Venus Japan]
SACD Rip | SACD ISO | DSD64 2.0 > 1-bit/2.8224 MHz | 67:51 minutes | Front/Rear Covers | 2,25 GB
or FLAC(converted with foobar2000 to tracks) 24bit/88,2 kHz | Front/Rear Covers | 1,47 GB

Massimo Farao is a wonderful Italian pianist who has played and recorded with Red Holloway, Albert "Tootie" Heath, Tony Scott, Franco Ambrosetti, Nat Adderley, Jeff Tain Watts, Jack DeJohnette and Chris Potter, among others. For this release he's joined with Nicola Barbon, Roberto Facchinetti and Ernesttico on the conga play familiar tunes with a twist. The result is exciting and beautiful!

Tracklist:

01. South Seas
02. The Fall Of Love
03. Kelly Roll
04. Falling In Love With Love
05. But Not For Me
06. Theme From Mash
07. Not A Tear
08. The Way You Look Tonight
09. Canadian Sunset
10. Sunny
11. Blue Bossa

Produced, Mixed & Mastered by Tetsuo Hara. Engineered by Paolo Novat.
Recorded on January 17-18, 2017 at Azzurra Studio in Pastrengo, Italy.
Venus Hyper Magnum Sound Direct Mix. VENUS Japan # VHGD-230.

Personnel
Massimo Farao' - piano
Nicola Barbon - bass
Roberto "Bobo" Facchinetti - drums
Ernesttico - conga

foobar2000 1.3.17 / Dynamic Range Meter 1.1.1

––––––––––––––––––––––––––––––––––––––––
Analyzed: MASSIMO FARAO' AFRO CUBAN PIANO QUARTET / Blue Bossa
––––––––––––––––––––––––––––––––––––––––

DR Peak RMS Duration Track
––––––––––––––––––––––––––––––––––––––––
DR5 -4.74 dB -11.42 dB 5:28 01-South Seas
DR5 -4.76 dB -11.17 dB 4:15 02-The Fall Of Love
DR6 -4.77 dB -11.72 dB 3:39 03-Kelly Roll
DR5 -4.80 dB -11.38 dB 8:10 04-Falling In Love With Love
DR7 -4.82 dB -13.74 dB 7:06 05-But Not For Me
DR5 -4.83 dB -11.34 dB 5:52 06-Theme From Mash
DR7 -4.87 dB -16.01 dB 5:06 07-Not A Tear
DR7 -4.81 dB -14.05 dB 8:37 08-The Way You Look Tonight
DR7 -4.82 dB -12.90 dB 8:54 09-Canadian Sunset
DR6 -4.86 dB -12.07 dB 5:37 10-Sunny
DR8 -4.93 dB -14.90 dB 5:06 11-Blue Bossa
––––––––––––––––––––––––––––––––––––––––

Number of tracks: 11
Official DR value: DR6

Samplerate: 2822400 Hz / PCM Samplerate: 88200 Hz
Channels: 2
Bits per sample: 1
Bitrate: 5645 kbps
Codec: DSD64


Thanks to jazzyman!
Uncompressed SACD ISO size > 2,73 GB
>