Subcategories

Maynard Ferguson & Big Bop Norveau - One More Trip To Birdland (1996) [Reissue 2003] PS3 ISO+Hi-Res FLAC

Posted By: HDAtall
Maynard Ferguson & Big Bop Norveau - One More Trip To Birdland (1996) [Reissue 2003] PS3 ISO+Hi-Res FLAC

Maynard Ferguson & Big Bop Norveau - One More Trip To Birdland (1996) [Reissue 2003]
PS3 Rip | SACD ISO | DST64 2.0 & 5.1 > 1-bit/2.8224 MHz | 53:04 minutes | Scans included | 3,61 GB
or FLAC(converted with foobar2000 to tracks) 24bit/88,2 kHz | Full Scans included | 1,08 GB

The "screaming" trumpeter, a Canadian brassman and bandleader who got his start with Stan Kenton's orchestra before a storied solo career. He was noted for being able to play accurately in a remarkably high register, and for his bands, which served as stepping stones for up-and-coming talent.

Even at the age of 67, Maynard Ferguson shows on this album that he could still belt out the high notes. His "Big Bop Noveau" band consists of four trumpets, trombonist Tom Garling (who takes a rockish guitar solo on "Birdland"), Matt Wallace and Chris Farr on saxophones, and a rhythm section. With the exception of "Birdland," the music is strictly bebop, with plenty of screaming trumpet and heated playing; Wallace's alto outbursts often take honors. Highlights include "Manteca," "Cajun Cookin'," "Milestones" and a hyper "It Don't Mean a Thing".

Tracklist:

01. You Got It
02. Manteca
03. The Vibe
04. Cajun Cookin`
05. Milestones
06. She Was Too Good To Me
07. Birdland
08. Blues From Around Here
09. It Don't Mean A Thing If It Ain't Got That Swing

foobar2000 1.2.9 / Dynamic Range Meter 1.1.1

––––––––––––––––––––––––––––––––––––––––
Analyzed: Maynard Ferguson & Big Bop Nouveau / One More Trip to Birdland
––––––––––––––––––––––––––––––––––––––––

DR Peak RMS Duration Track
––––––––––––––––––––––––––––––––––––––––
DR14 -8.99 dB -27.54 dB 4:09 01-You Got It
DR14 -8.85 dB -26.96 dB 6:24 02-Manteca
DR14 -9.44 dB -28.56 dB 7:14 03-The Vibe
DR13 -9.67 dB -28.18 dB 7:10 04-Cajun Cookin`
DR13 -9.11 dB -27.47 dB 5:33 05-Milestones
DR15 -8.52 dB -30.00 dB 6:25 06-She Was Too Good To Me
DR13 -9.14 dB -26.70 dB 4:12 07-Birdland
DR14 -9.41 dB -28.11 dB 7:34 08-Blues From Around Here
DR13 -9.32 dB -27.36 dB 4:21 09-It Don't Mean A Thing If It Ain't Got That Swing
––––––––––––––––––––––––––––––––––––––––

Number of tracks: 9
Official DR value: DR14

Samplerate: 2822400 Hz / PCM Samplerate: 88200 Hz
Channels: 6
Bits per sample: 24
Bitrate: 16934 kbps
Codec: DST64
================================================================================

––––––––––––––––––––––––––––––––––––––––
Analyzed: Maynard Ferguson & Big Bop Nouveau / One More Trip to Birdland
––––––––––––––––––––––––––––––––––––––––

DR Peak RMS Duration Track
––––––––––––––––––––––––––––––––––––––––
DR13 -7.72 dB -23.04 dB 4:09 01-You Got It
DR13 -6.91 dB -22.53 dB 6:24 02-Manteca
DR12 -6.92 dB -22.75 dB 7:14 03-The Vibe
DR14 -8.12 dB -25.50 dB 7:10 04-Cajun Cookin`
DR11 -6.97 dB -22.42 dB 5:33 05-Milestones
DR13 -7.26 dB -24.64 dB 6:25 06-She Was Too Good To Me
DR11 -8.29 dB -22.59 dB 4:12 07-Birdland
DR15 -6.73 dB -25.47 dB 7:34 08-Blues From Around Here
DR12 -7.30 dB -23.60 dB 4:22 09-It Don't Mean A Thing If It Ain't Got That Swing
––––––––––––––––––––––––––––––––––––––––

Number of tracks: 9
Official DR value: DR13

Samplerate: 2822400 Hz / PCM Samplerate: 88200 Hz
Channels: 2
Bits per sample: 24
Bitrate: 5645 kbps
Codec: DST64


Thanks to SergeyVP!
Uncompressed SACD ISO size > 3,43 GB
>
SACD ISO 1
SACD ISO 2
SACD ISO 3
SACD ISO 4
SACD ISO 5

FLAC (Stereo) 1
FLAC (Stereo) 2
>