McCoy Tyner, Stanley Clarke, Al Foster - McCoy Tyner with Stanley Clarke and Al Foster (2000) PS3 ISO + FLAC

Posted By: HDAtall
McCoy Tyner, Stanley Clarke, Al Foster - McCoy Tyner with Stanley Clarke and Al Foster (2000) PS3 ISO + FLAC

McCoy Tyner, Stanley Clarke, Al Foster - McCoy Tyner with Stanley Clarke and Al Foster (2000)
PS3 Rip | SACD ISO | DSD64 Stereo > 1-bit/2.8224 MHz | 65:14 minutes | Scans included | 1,99 GB
or FLAC 2.0 Stereo (converted with foobar2000 to tracks) 24bit/88,2 kHz | Scans included | 1,19 GB

No longer trying to push the envelope of innovation, Tyner settles down with a pair of experts and carves out a very nice, fairly orthodox piano trio album. This is Tyner reaffirming most of his strengths: the massive tone quality, the two-handed control over the entire keyboard, and the generally uplifting attitude conveyed through the shape of his melodic invention. He does so in a program of six originals, three standards, and one tune by Stanley Clarke, mixing modal tunes, blues, funk, ballads, and a mildly Caribbean ringer. Only once does he evoke memories of the classic John Coltrane Quartet – not in "Trane-Like" but in "The Night Has a Thousand Eyes." Clarke takes a break from the film studios and turns in one of his rare sessions on acoustic double bass, producing solid, faultless, relatively conventional support. He doesn't leave the electric bass entirely at home, however; his funky side bumps through one of the two versions of "I Want to Tell You 'Bout That," and he exercises low-key, electric subtleties on his "In the Tradition Of" and "Caribe." Foster throws himself skillfully into every situation; he is at ease in all idioms. The sound is excellent, with each instrument, even Tyner's formidable piano, in perfect balance.

Tracklist:

01. Trane-like
02. Once Upon A Time
03. Never Let Me Go
04. I Want to Tell You 'Bout That
05. Will You Still Be Mine
06. Goin' 'Way Blues
07. In the Tradition Of
08. The Night Has a Thousand Eyes
09. Carriba
10. Memories
11. I Want to Tell You 'Bout That

foobar2000 1.3.3 / Dynamic Range Meter 1.1.1

––––––––––––––––––––––––––––––––––––––––
Analyzed: McCoy Tyner, Stanley Clarke, Al Foster / McCoy Tyner with Stanley Clarke and Al Foster
––––––––––––––––––––––––––––––––––––––––

DR Peak RMS Duration Track
––––––––––––––––––––––––––––––––––––––––
DR15 -3.32 dB -22.12 dB 9:11 01-Trane-like
DR14 -4.78 dB -23.31 dB 5:30 02-Once Upon A Time
DR14 -8.54 dB -27.11 dB 4:18 03-Never Let Me Go
DR16 -0.80 dB -22.17 dB 5:18 04-I Want to Tell You 'Bout That
DR13 -6.18 dB -23.12 dB 6:44 05-Will You Still Be Mine
DR12 -5.47 dB -21.87 dB 6:30 06-Goin' 'Way Blues
DR14 -8.76 dB -26.61 dB 7:36 07-In the Tradition Of
DR14 -4.01 dB -21.79 dB 4:51 08-The Night Has a Thousand Eyes
DR15 -2.89 dB -21.62 dB 5:40 09-Carriba
DR15 -5.90 dB -28.36 dB 3:36 10-Memories
DR14 -2.99 dB -21.35 dB 6:01 11-I Want to Tell You 'Bout That
––––––––––––––––––––––––––––––––––––––––

Number of tracks: 11
Official DR value: DR14

Samplerate: 2822400 Hz / PCM Samplerate: 88200 Hz
Channels: 2
Bits per sample: 24
Bitrate: 5645 kbps
Codec: DSD64


Thanks to SergeyVP!
Uncompressed SACD ISO size > 2,63 GB
>
SACD ISO 1
SACD ISO 2
SACD ISO 3

FLAC 1
FLAC 2
>