Miles Davis - The Man With The Horn (1981) [Japan 1999] SACD ISO + Hi-Res FLAC

Posted By: HDAtall
Miles Davis - The Man With The Horn (1981) [Japan 1999] SACD ISO + Hi-Res FLAC

Miles Davis - The Man With The Horn (1981) [Japan 1999]
SACD Rip | SACD ISO | DSD64 2.0 > 1-bit/2.8224 MHz | 52:13 minutes | Front/Rear Covers | 1,61 GB
or FLAC(converted with foobar2000 to tracks) 24bit/88,2 kHz | Front/Rear Covers | 1,12 GB

The Man with the Horn is an album released by Miles Davis in 1981, featuring drummer Al Foster, saxophonist Bill Evans, guitarists Mike Stern and Barry Finnerty, and others. It was Davis's first new release since 1975, following a six-year reclusive retirement. Rock-oriented in nature, the music fuses 1980s pop with improvisational funk and fusion styles. The album marked Davis's return to his more traditional trumpet playing, although the title song "The Man with the Horn" features wah-wah improvisation along with vocals.

Miles Davis' first comeback record finds the trumpeter a bit shaky (he would improve album by album during the next few years) and has a few poppish throwaway tracks; it is doubtful if anyone really remembers the title cut or "Shout." But with Bill Evans on soprano and electric bassist Marcus Miller, the other four selections are more rewarding with Davis forming the nucleus of his new band.

Tracklist:

01. Fat Time
02. Back Seat Betty
03. Shout
04. Aïda
05. The Man with the Horn
06. Ursula

Recorded on June 1, 1980 – May 6, 1981 at Columbia Studio, NYC.

Personnel
Miles Davis - trumpet
Bill Evans - soprano saxophone (exc. 3)
Barry Finnerty - guitar (exc. 5)
Mike Stern - guitar (1)
Marcus Miller - bass (exc. 3, 5)
Al Foster - drums (exc. 3, 5)
Sammy Figueroa - percussion (exc. 5)

foobar2000 1.3.17 / Dynamic Range Meter 1.1.1

––––––––––––––––––––––––––––––––––––––––
Analyzed: ? / ?
––––––––––––––––––––––––––––––––––––––––

DR Peak RMS Duration Track
––––––––––––––––––––––––––––––––––––––––
DR14 -2.05 dB -17.83 dB 9:53 01-FAT TIME
DR13 -3.38 dB -19.70 dB 11:12 02-BACK SEAT BETTY
DR12 -4.49 dB -18.37 dB 5:45 03-SHOUT
DR13 -3.59 dB -18.19 dB 8:07 04-AПDA
DR13 -3.05 dB -18.93 dB 6:30 05-THE MAN WITH THE HORN
DR13 -4.70 dB -20.03 dB 10:45 06-URSULA
––––––––––––––––––––––––––––––––––––––––

Number of tracks: 6
Official DR value: DR13

Samplerate: 2822400 Hz / PCM Samplerate: 88200 Hz
Channels: 2
Bits per sample: 1
Bitrate: 5645 kbps
Codec: DSD64


Thanks to jazzyman!
Uncompressed SACD ISO size > 2,09 GB
>