Nat King Cole - Recent APO Collection (8x SACD, 1957-1963) PS3 ISO {RE-UP}

Posted By: HDAtall
Nat King Cole - Recent APO Collection (8x SACD, 1957-1963) PS3 ISO {RE-UP}

Nat King Cole - Recent APO Collection (8x SACD, 1957-1963)
PS3 Rip | SACD ISO | DST64 2.0 & 3.0 > 1-bit/2.8224 MHz | Scans included | 14,4 GB
Analogue Productions Remasters 2010-2011

This recent Analogue Productions collection includes the albums: Just One Of Those Things (1957), Love Is The Thing (1957), After Midnight (1957), St. Louis Blues (1958), The Very Thought Of You (1958), Where Did Everyone Go (1963), plus The Nat King Cole Story (1961).


–––––––––––––––––––––––––––––––––––––––––––––––––––


Nat King Cole - Recent APO Collection (8x SACD, 1957-1963) PS3 ISO {RE-UP}

Nat King Cole - Just One Of Those Things (1957) [APO Remaster 2011]
PS3 Rip | SACD ISO | DST64 2.0 & 3.0 > 1-bit/2.8224 MHz | 75:23/36:21 mins | Scans included | 2,26 GB (2,07 GB)

Just One of Those Things is a theme album comparable to one of Frank Sinatra's uptempo swing albums of the same period (Come Fly With Me, etc.), and employs the same arranger/conductor, Billy May. Nat King Cole is a bit less effective than Sinatra at uptempo material; he tends to undersing these sprightly standards, and May saves his dramatic horn charts and percussion shots for moments when Cole is away from the microphone. Even so, by the fifth track, "These Foolish Things Remind Me of You," May has retreated to ballad time, and though his embellishments threaten to break out behind the singer, Cole gives an assured, unhurried performance. And that's the point: that Cole has tamed the rambunctious May does not mean he doesn't give wonderful interpretations to some wonderful songs: "Don't Get Around Much Anymore," "Just One of Those Things," "The Song Is Ended (But the Melody Lingers On)." And the light-handed swing supports those efforts well.

Tracklist:

01. When Your Lover Has Gone
02. A Cottage For Sale
03. Who's Sorry Now?
04. Once In A While
05. These Foolish Things Remind Me Of You
06. Just For The Fun Of It
07. Don't Get Around Much Anymore
08. I Understand
09. Just One Of Those Things
10. The Song Is Ended
11. I Should Care
12. The Party's Over
13. You'll Never Know (Bonus Track)
14. When Your Lover Has Gone (Mono Mix)
15. A Cottage For Sale (Mono Mix)
16. Who's Sorry Now? (Mono Mix)
17. Once In A While (Mono Mix)
18. These Foolish Things Remind Me Of You (Mono Mix)
19. Just For The Fun Of It (Mono Mix)
20. Don't Get Around Much Anymore (Mono Mix)
21. I Understand (Mono Mix)
22. Just One Of Those Thing (Mono Mix)
23. The Song Is Ended (Mono Mix)
24. I Should Care (Mono Mix)
25. The Party's Over (Mono Mix)
26. You'll Never Know (Bonus Track Mono Mix)
27. Just For The Fun Of It (Bonus Track Mono Mix)

Tracks "14-27" presented in 2 channels only.

foobar2000 1.2.9 / Dynamic Range Meter 1.1.1

––––––––––––––––––––––––––––––––––––––––
Analyzed: Nat "King" Cole / Just One Of Those Things
––––––––––––––––––––––––––––––––––––––––

DR Peak RMS Duration Track
––––––––––––––––––––––––––––––––––––––––
DR9 -3.79 dB -27.00 dB 2:31 01-When Your Lover Has Gone
DR8 -3.51 dB -26.49 dB 2:56 02-A Cottage For Sale
DR8 -4.47 dB -26.06 dB 2:57 03-Who's Sorry Now?
DR8 -3.59 dB -27.05 dB 2:48 04-Once In A While
DR8 -3.25 dB -26.92 dB 3:46 05-These Foolish Things Remind Me Of You
DR9 -5.15 dB -27.83 dB 2:34 06-Just For The Fun Of It
DR9 -4.54 dB -27.45 dB 3:12 07-Don't Get Around Much Anymore
DR9 -3.26 dB -26.20 dB 2:23 08-I Understand
DR8 -4.41 dB -25.44 dB 2:12 09-Just One Of Those Things
DR10 -3.78 dB -28.43 dB 2:44 10-The Song Is Ended
DR9 -5.29 dB -29.20 dB 2:46 11-I Should Care
DR9 -4.43 dB -27.86 dB 2:42 12-The Party's Over
DR9 -3.37 dB -27.59 dB 2:49 13-You'll Never Know (Bonus Track)
––––––––––––––––––––––––––––––––––––––––

Number of tracks: 13
Official DR value: DR9

Samplerate: 2822400 Hz / PCM Samplerate: 88200 Hz
Channels: 5
Bits per sample: 24
Bitrate: 14112 kbps
Codec: DST64
================================================================================

––––––––––––––––––––––––––––––––––––––––
Analyzed: Nat "King" Cole / Just One Of Those Things
––––––––––––––––––––––––––––––––––––––––

DR Peak RMS Duration Track
––––––––––––––––––––––––––––––––––––––––
DR15 -6.58 dB -24.93 dB 2:31 01-When Your Lover Has Gone
DR14 -5.64 dB -23.81 dB 2:56 02-A Cottage For Sale
DR14 -5.59 dB -24.00 dB 2:57 03-Who's Sorry Now?
DR14 -7.74 dB -25.28 dB 2:49 04-Once In A While
DR15 -7.24 dB -25.30 dB 3:47 05-These Foolish Things Remind Me Of You
DR14 -8.89 dB -26.01 dB 2:35 06-Just For The Fun Of It
DR15 -7.74 dB -26.18 dB 3:12 07-Don't Get Around Much Anymore
DR13 -7.70 dB -24.82 dB 2:24 08-I Understand
DR12 -6.41 dB -21.28 dB 2:14 09-Just One Of Those Things
DR15 -7.15 dB -26.22 dB 2:45 10-The Song Is Ended
DR15 -8.13 dB -27.41 dB 2:46 11-I Should Care
DR13 -6.30 dB -24.71 dB 2:42 12-The Party's Over
DR14 -6.41 dB -25.12 dB 2:45 13-You'll Never Know (Bonus Track)
DR14 -5.60 dB -23.34 dB 2:29 14-When Your Lover Has Gone (Mono Mix)
DR14 -7.32 dB -25.06 dB 2:57 15-A Cottage For Sale (Mono Mix)
DR14 -6.34 dB -23.29 dB 2:57 16-Who's Sorry Now? (Mono Mix)
DR14 -7.19 dB -24.53 dB 2:47 17-Once In A While (Mono Mix)
DR15 -8.47 dB -26.37 dB 3:47 18-These Foolish Things Remind Me Of You (Mono Mix)
DR13 -9.08 dB -25.35 dB 2:35 19-Just For The Fun Of It (Mono Mix)
DR14 -7.32 dB -24.48 dB 3:10 20-Don't Get Around Much Anymore (Mono Mix)
DR14 -8.35 dB -25.66 dB 2:24 21-I Understand (Mono Mix)
DR13 -7.04 dB -22.70 dB 2:13 22-Just One Of Those Thing (Mono Mix)
DR15 -6.67 dB -24.79 dB 2:45 23-The Song Is Ended (Mono Mix)
DR13 -7.75 dB -25.37 dB 2:46 24-I Should Care (Mono Mix)
DR14 -6.34 dB -24.38 dB 2:44 25-The Party's Over (Mono Mix)
DR13 -6.37 dB -23.49 dB 2:45 26-You'll Never Know (Bonus Track Mono Mix)
DR14 -7.52 dB -24.19 dB 2:42 27-Just For The Fun Of It (Bonus Track Mono Mix)
––––––––––––––––––––––––––––––––––––––––

Number of tracks: 27
Official DR value: DR14

Samplerate: 2822400 Hz / PCM Samplerate: 88200 Hz
Channels: 2
Bits per sample: 24
Bitrate: 5645 kbps
Codec: DST64



–––––––––––––––––––––––––––––––––––––––––––––––––––

Nat King Cole - Recent APO Collection (8x SACD, 1957-1963) PS3 ISO {RE-UP}

Nat King Cole - Love Is The Thing (1957) [APO Remaster 2010]
PS3 Rip | SACD ISO | DST64 2.0 & 3.0 > 1-bit/2.8224 MHz | 72:37/30:25 mins | Scans included | 1,96 GB (1,84 GB)

Nat King Cole's collaborations with Gordon Jenkins rank among the finest from either artist or arranger. Cole's first stereophonic long player, 1957's Love Is the Thing remains the epitome of the pair's undeniable compatibility, and it topped the album charts for eight weeks. The opener "When I Fall in Love" is considered by many to be nothing short of definitive; the restrained orchestration perfectly adapts to the singer's verdant vocals. Similarly, "Stardust" sparkles as a flawless musical alliance is formed with Cole's warm and inviting narrative weaving over Jenkins' intimate score. Simply stated, both songs are unmitigated masterworks – and we're only two cuts into the dozen-song LP. Another key to the project's success is Jenkins ability to reign in just enough instrumentation to support Cole's uniformly restrained leads. Examples abound throughout, with "Stay as Sweet as You Are," "At Last," and the rural sophistication of "When Sunny Gets Blue." The heartfelt "Love Letters" and even the comparatively light "Ain't Misbehavin'" incorporate a sonic synergy as the airy string section glides between Cole's line by line phrasing. Also worth mentioning is the Jenkins original "I Thought About Marie," as it sits comfortably beside some of the most time-honored tunes in 20th century popular music.

Tracklist:

01. When I Fall In Love (Stereo)
02. Stardust (Stereo)
03. Stay As Sweet As You Are (Stereo)
04. Where Can I Go Without You? (Stereo)
05. Maybe It's Because I Love You Too Much [Mono]
06. Love Letters [Mono]
07. Ain't Misbehavin' (Stereo)
08. I Thought About Marie (Stereo)
09. At Last (Stereo)
10. It's All In The Game (Stereo)
11. When Sunny Gets Blue (Stereo)
12. Love Is The Thing (Stereo)
13. When I Fall In Love [Mono]
14. Stardust [Mono]
15. Stay As Sweet As You Are [Mono]
16. Where Can I Go Without You? [Mono]
17. Maybe It's Because I Love You Too Much [Mono]
18. Love Letters [Mono]
19. Ain't Misbehavin' [Mono]
20. I Thought About Marie [Mono]
21. At Last [Mono]
22. It's All In The Game [Mono]
23. When Sunny Gets Blue [Mono]
24. Love Is The Thing [Mono]

Tracks "12-24" presented in 2 channels only.

foobar2000 1.2.9 / Dynamic Range Meter 1.1.1

––––––––––––––––––––––––––––––––––––––––
Analyzed: Nat "King" Cole / Love Is The Thing
––––––––––––––––––––––––––––––––––––––––

DR Peak RMS Duration Track
––––––––––––––––––––––––––––––––––––––––
DR8 -4.79 dB -27.75 dB 3:08 01-When I Fall In Love (Stereo)
DR7 -6.28 dB -28.70 dB 3:13 02-Stardust (Stereo)
DR7 -4.03 dB -26.58 dB 2:58 03-Stay As Sweet As You Are (Stereo)
DR8 -5.85 dB -28.16 dB 2:54 04-Where Can I Go Without You? (Stereo)
DR8 -4.49 dB -28.81 dB 3:14 05-Maybe It's Because I Love You Too Much (Mono)
DR8 -8.99 dB -31.49 dB 3:04 06-Love Letters (Mono)
DR7 -4.37 dB -27.50 dB 2:58 07-Ain't Misbehavin' (Stereo)
DR8 -6.09 dB -28.64 dB 3:06 08-I Thought About Marie (Stereo)
DR7 -4.14 dB -28.15 dB 2:44 09-At Last (Stereo)
DR8 -5.28 dB -29.38 dB 3:07 10-It's All In The Game (Stereo)
––––––––––––––––––––––––––––––––––––––––

Number of tracks: 10
Official DR value: DR8

Samplerate: 2822400 Hz / PCM Samplerate: 88200 Hz
Channels: 5
Bits per sample: 24
Bitrate: 14112 kbps
Codec: DST64
================================================================================

––––––––––––––––––––––––––––––––––––––––
Analyzed: Nat "King" Cole / Love Is The Thing
––––––––––––––––––––––––––––––––––––––––

DR Peak RMS Duration Track
––––––––––––––––––––––––––––––––––––––––
DR13 -6.03 dB -24.15 dB 3:10 01-When I Fall In Love (Stereo)
DR13 -8.24 dB -25.96 dB 3:15 02-Stardust (Stereo)
DR13 -7.37 dB -24.07 dB 2:59 03-Stay As Sweet As You Are (Stereo)
DR13 -8.06 dB -24.77 dB 2:56 04-Where Can I Go Without You? (Stereo)
DR13 -7.44 dB -24.12 dB 2:49 05-Maybe It's Because I Love You Too Much (Mono)
DR14 -8.50 dB -25.99 dB 2:46 06-Love Letters (Mono)
DR14 -6.26 dB -24.62 dB 3:16 07-Ain't Misbehavin' (Stereo)
DR12 -8.68 dB -24.66 dB 3:06 08-I Thought About Marie (Stereo)
DR13 -7.10 dB -24.03 dB 2:59 09-At Last (Stereo)
DR14 -7.38 dB -24.83 dB 3:07 10-It's All In The Game (Stereo)
DR14 -7.11 dB -24.54 dB 2:46 11-When Sunny Gets Blue (Stereo)
DR14 -7.34 dB -25.27 dB 3:04 12-Love Is The Thing (Stereo)
DR14 -6.88 dB -24.58 dB 3:11 13-When I Fall In Love (Mono)
DR13 -8.00 dB -26.11 dB 3:16 14-Stardust (Mono)
DR12 -7.27 dB -24.56 dB 3:00 15-Stay As Sweet As You Are (Mono)
DR14 -7.58 dB -25.27 dB 2:57 16-Where Can I Go Without You? (Mono)
DR13 -7.44 dB -24.12 dB 2:49 17-Maybe It's Because I Love You Too Much (Mono)
DR14 -8.50 dB -25.91 dB 2:44 18-Love Letters (Mono)
DR14 -7.73 dB -24.42 dB 3:16 19-Ain't Misbehavin' (Mono)
DR13 -8.53 dB -24.85 dB 3:09 20-I Thought About Marie (Mono)
DR13 -8.06 dB -24.28 dB 3:00 21-At Last (Mono)
DR14 -8.33 dB -25.90 dB 3:08 22-It's All In The Game (Mono)
DR14 -7.06 dB -24.12 dB 2:46 23-When Sunny Gets Blue (Mono)
DR14 -8.42 dB -25.85 dB 3:07 24-Love Is The Thing (Mono)
––––––––––––––––––––––––––––––––––––––––

Number of tracks: 24
Official DR value: DR14

Samplerate: 2822400 Hz / PCM Samplerate: 88200 Hz
Channels: 2
Bits per sample: 24
Bitrate: 5645 kbps
Codec: DST64



–––––––––––––––––––––––––––––––––––––––––––––––––––

Nat King Cole - Recent APO Collection (8x SACD, 1957-1963) PS3 ISO {RE-UP}

Nat King Cole - After Midnight (1957) [APO Remaster 2010]
PS3 Rip | SACD ISO | DSD64 2.0 > 1-bit/2.8224 MHz | 63:40 mins | Scans included | 1,92 GB (2,59 GB)

Once Nat King Cole gave up playing piano on a regular basis and instead focused on a series of easy listening vocal albums, jazz fans longed for him to return to his first love. These 1956 studio sessions made up Cole's last jazz-oriented disc, where he played piano and sang on every number, joined by several guest soloists. Cole's vocals are impeccable and swinging, while his piano alternates between providing subdued backgrounds and light solos that don't reveal his true potential on the instrument. Willie Smith's smooth alto sax buoys the singer in the brisk take of "Just You, Just Me." Harry "Sweets" Edison's muted trumpet complements the leader in his interpretation of "Sweet Lorraine." Composer Juan Tizol's valve trombone and former Cole sideman Jack Costanzo's bongos add just the right touch to the brisk take of "Caravan." Stuff Smith's humorous, unusually understated violin is a nice touch in "When I Grow Too Old to Dream." It's hard for any Nat King Cole fan to ignore these important sessions.

Tracklist:

01. Just You, Just Me
02. Sweet Lorraine
03. Sometimes I'm Happy
04. Caravan
05. It's Only A Paper Moon
06. You're Looking At Me
07. Lonely One
08. Don't Let It Go To Your Head
09. I Know That You Know
10. Blame It On My Youth
11. When I Grow Too Old To Dream
12. (Get Your Kicks On) Route 66
13. I Was A Little Too Lonely (And You Were A Little Too Late) (Bonus Track)
14. You Can Depend On Me (Bonus Track)
15. What Is There To Say (Bonus Track)
16. Two Loves Have I (Bonus Track)
17. Candy (Bonus Track)
18. Just You, Just Me (Bonus Track, Take One)
19. It's Only A Paper Moon (Bonus Track, Take One "Breakdown")

foobar2000 1.2.9 / Dynamic Range Meter 1.1.1

––––––––––––––––––––––––––––––––––––––––
Analyzed: Nat "King" Cole / After Midnight
––––––––––––––––––––––––––––––––––––––––

DR Peak RMS Duration Track
––––––––––––––––––––––––––––––––––––––––
DR13 -8.37 dB -23.75 dB 3:02 01-Just You, Just Me
DR16 -6.26 dB -25.04 dB 4:35 02-Sweet Lorraine
DR15 -6.65 dB -24.45 dB 4:09 03-Sometimes I'm Happy
DR13 -6.94 dB -23.46 dB 2:45 04-Caravan
DR14 -6.20 dB -23.11 dB 3:07 05-It's Only A Paper Moon
DR16 -6.34 dB -24.34 dB 4:14 06-You're Looking At Me
DR15 -8.89 dB -25.71 dB 3:46 07-Lonely One
DR14 -7.37 dB -23.83 dB 3:12 08-Don't Let It Go To Your Head
DR14 -3.93 dB -22.14 dB 2:29 09-I Know That You Know
DR17 -6.28 dB -26.63 dB 4:10 10-Blame It On My Youth
DR14 -7.29 dB -24.16 dB 3:32 11-When I Grow Too Old To Dream
DR15 -6.37 dB -24.24 dB 3:41 12-(Get Your Kicks On) Route 66
DR15 -6.24 dB -23.66 dB 3:00 13-I Was A Little Too Lonely (And You Were A Little Too Late) (Bonus Track)
DR16 -7.69 dB -26.87 dB 3:52 14-You Can Depend On Me (Bonus Track)
DR16 -5.82 dB -25.48 dB 3:35 15-What Is There To Say (Bonus Track)
DR14 -8.24 dB -24.78 dB 2:47 16-Two Loves Have I (Bonus Track)
DR16 -5.80 dB -24.02 dB 3:53 17-Candy (Bonus Track)
DR14 -7.17 dB -24.20 dB 3:03 18-Just You, Just Me (Bonus Track, Take One)
DR15 -7.56 dB -25.66 dB 0:50 19-It's Only A Paper Moon (take one "Breakdown")
––––––––––––––––––––––––––––––––––––––––

Number of tracks: 19
Official DR value: DR15

Samplerate: 2822400 Hz / PCM Samplerate: 88200 Hz
Channels: 2
Bits per sample: 24
Bitrate: 5645 kbps
Codec: DSD64



–––––––––––––––––––––––––––––––––––––––––––––––––––

Nat King Cole - Recent APO Collection (8x SACD, 1957-1963) PS3 ISO {RE-UP}

Nat King Cole - St. Louis Blues (1958) [APO Remaster 2011]
PS3 Rip | SACD ISO | DST64 2.0 & 3.0 > 1-bit/2.8224 MHz | 65:41/32:58 mins | Scans included | 2,04 GB (1,84 GB)

The filmed version of W.C. Handy's life, St. Louis Blues, is a fictional abomination full of every bad cliché that Hollywood could come up with. Its one saving grace was the dignified performance given by Nat King Cole in the lead role (even if Handy was never a singing pianist). This LP, in addition to featuring Nelson Riddle's "Overture" from the film, finds Cole singing ten of Handy's finest compositions (including "Beale Street Blues," "Careless Love" and the title song) while backed by an orchestra playing Riddle's arrangements.

Tracklist:

01. Overture, Love Theme, Hesitation Blues
02. Harlem Blues
03. Chantez Les Bas
04. Friendless Blues
05. Stay
06. Joe Turner's Blues
07. Beale Street Blues
08. Careless Love
09. Morning Star
10. Memphis Blues
11. Yellow Dog Blues
12. St. Louis Blues
13. Overture, Love Theme, Hesitation Blues
14. Harlem Blues
15. Chantez Les Bas
16. Friendless Blues
17. Stay
18. Joe Turner's Blues
19. Beale Street Blues
20. Careless Love
21. Morning Star
22. Memphis Blues
23. Yellow Dog Blues
24. St. Louis Blues

Tracks "12-24" presented in 2 channels only.

foobar2000 1.2.9 / Dynamic Range Meter 1.1.1

––––––––––––––––––––––––––––––––––––––––
Analyzed: Nat "King" Cole / St. Louis Blues
––––––––––––––––––––––––––––––––––––––––

DR Peak RMS Duration Track
––––––––––––––––––––––––––––––––––––––––
DR9 -4.10 dB -26.91 dB 3:06 01-Overture, Love Theme, Hesitation Blues
DR7 -4.13 dB -25.92 dB 1:50 02-Harlem Blues
DR8 -6.60 dB -27.54 dB 2:35 03-Chantez Les Bas
DR8 -6.00 dB -27.78 dB 3:13 04-Friendless Blues
DR8 -4.29 dB -26.07 dB 2:38 05-Stay
DR7 -4.29 dB -25.75 dB 2:41 06-Joe Turner's Blues
DR7 -5.24 dB -25.76 dB 2:56 07-Beale Street Blues
DR8 -4.91 dB -26.92 dB 2:54 08-Careless Love
DR7 -3.47 dB -27.41 dB 2:13 09-Morning Star
DR8 -4.30 dB -25.37 dB 3:05 10-Memphis Blues
DR8 -4.58 dB -26.19 dB 3:14 11-Yellow Dog Blues
DR8 -4.70 dB -25.41 dB 2:33 12-St. Louis Blues
––––––––––––––––––––––––––––––––––––––––

Number of tracks: 12
Official DR value: DR8

Samplerate: 2822400 Hz / PCM Samplerate: 88200 Hz
Channels: 5
Bits per sample: 24
Bitrate: 14112 kbps
Codec: DST64
================================================================================

––––––––––––––––––––––––––––––––––––––––
Analyzed: Nat "King" Cole / St. Louis Blues
––––––––––––––––––––––––––––––––––––––––

DR Peak RMS Duration Track
––––––––––––––––––––––––––––––––––––––––
DR13 -8.80 dB -25.82 dB 3:08 01-Overture, Love Theme, Hesitation Blues
DR14 -7.12 dB -24.45 dB 1:51 02-Harlem Blues
DR12 -9.53 dB -25.67 dB 2:35 03-Chantez Les Bas
DR13 -8.91 dB -25.88 dB 3:14 04-Friendless Blues
DR13 -6.75 dB -23.88 dB 2:37 05-Stay
DR12 -8.04 dB -23.87 dB 2:40 06-Joe Turner's Blues
DR13 -6.44 dB -23.17 dB 2:55 07-Beale Street Blues
DR13 -6.78 dB -24.27 dB 2:51 08-Careless Love
DR14 -7.75 dB -26.04 dB 2:11 09-Morning Star
DR13 -5.32 dB -22.43 dB 3:05 10-Memphis Blues
DR12 -7.64 dB -24.60 dB 3:15 11-Yellow Dog Blues
DR12 -7.33 dB -22.56 dB 2:27 12-St. Louis Blues
DR12 -9.01 dB -26.12 dB 3:08 13-Overture, Love Theme, Hesitation Blues
DR14 -8.24 dB -26.01 dB 1:51 14-Harlem Blues
DR13 -12.12 dB -28.38 dB 2:36 15-Chantez Les Bas
DR14 -11.20 dB -29.17 dB 3:15 16-Friendless Blues
DR13 -10.04 dB -26.06 dB 2:38 17-Stay
DR13 -7.83 dB -24.53 dB 2:41 18-Joe Turner's Blues
DR12 -10.76 dB -25.14 dB 2:56 19-Beale Street Blues
DR14 -6.72 dB -24.54 dB 2:46 20-Careless Love
DR13 -8.64 dB -25.64 dB 2:14 21-Morning Star
DR13 -8.96 dB -26.29 dB 3:05 22-Memphis Blues
DR13 -9.38 dB -25.53 dB 3:15 23-Yellow Dog Blues
DR12 -8.85 dB -23.74 dB 2:27 24-St. Louis Blues
––––––––––––––––––––––––––––––––––––––––

Number of tracks: 24
Official DR value: DR13

Samplerate: 2822400 Hz / PCM Samplerate: 88200 Hz
Channels: 2
Bits per sample: 24
Bitrate: 5645 kbps
Codec: DST64



–––––––––––––––––––––––––––––––––––––––––––––––––––

Nat King Cole - Recent APO Collection (8x SACD, 1957-1963) PS3 ISO {RE-UP}

Nat King Cole - The Very Thought Of You (1958) [APO Remaster 2010]
PS3 Rip | SACD ISO | DST64 2.0 & 3.0 > 1-bit/2.8224 MHz | 112:27/56:08 mins | Scans included | 3,2 GB (3,03 GB)

Nat King Cole possessed one of the most accessible and appealing voices of any singer in the 1950s. This ballad-oriented set puts the emphasis completely on his voice (there is no piano playing or any hint of his jazz-oriented past) and features Cole accompanied by Gordon Jenkins' sweet arrangements for a string orchestra. Many other singers might find it difficult to overcome, much less uplift this type of accompaniment, but Cole's basic and honest delivery works quite well in this setting. Highlights include "The Very Thought of You," "But Beautiful," "This Is All I Ask," "For All We Know," and "The More I See You".

Tracklist:

01. The Very Thought Of You (Stereo)
02. But Beautiful (Stereo)
03. Impossible (Stereo)
04. I Wish I Knew The Way To Your Heart (Stereo)
05. I Found A Million Dollar Baby (In A Five And Ten Cent Store) (Stereo)
06. Magnificent Obsession (Stereo)
07. My Heart Tells Me (Stereo)
08. Paradise (Stereo)
09. This Is All I Ask (Stereo)
10. Cherie, I Love You (Stereo)
11. Making Believe You're Here (Stereo)
12. Cherchez La Femme (Stereo)
13. For All We Know (Stereo)
14. The More I See You (Stereo)
15. Don't Blame Me (Stereo)
16. There Is No Greater Love (Stereo)
17. The Very Thought Of You [Mono]
18. But Beautiful [Mono]
19. Impossible [Mono]
20. I Wish I Knew The Way To Your Heart [Mono]
21. I Found A Million Dollar Baby (In A Five And Ten Cent Store) [Mono]
22. Magnificent Obsession [Mono]
23. My Heart Tells Me [Mono]
24. Paradise [Mono]
25. This Is All I Ask [Mono]
26. Cherie, I Love You [Mono]
27. Making Believe You're Here [Mono]
28. Cherchez La Femme [Mono]
29. For All We Know [Mono]
30. The More I See You [Mono]
31. Don't Blame Me [Mono]
32. There Is No Greater Love [Mono]

Tracks "16-32" presented in 2 channels only.

foobar2000 1.2.9 / Dynamic Range Meter 1.1.1

––––––––––––––––––––––––––––––––––––––––
Analyzed: Nat "King" Cole / The Very Thought Of You
––––––––––––––––––––––––––––––––––––––––

DR Peak RMS Duration Track
––––––––––––––––––––––––––––––––––––––––
DR7 -3.79 dB -24.86 dB 3:50 01-The Very Thought Of You (STEREO)
DR7 -3.56 dB -25.91 dB 3:28 02-But Beautiful (STEREO)
DR8 -4.06 dB -26.90 dB 3:09 03-Impossible (STEREO)
DR8 -4.01 dB -27.19 dB 3:14 04-I Wish I Knew The Way To Your Heart (STEREO)
DR8 -3.52 dB -29.35 dB 2:51 05-I Found A Million Dollar Baby (In A Five And Ten Cent Store) (STEREO)
DR7 -3.89 dB -25.52 dB 3:54 06-Magnificent Obsession (STEREO)
DR8 -3.89 dB -27.75 dB 4:14 07-My Heart Tells Me (STEREO)
DR8 -4.33 dB -26.49 dB 3:14 08-Paradise (STEREO)
DR7 -3.79 dB -26.98 dB 4:32 09-This Is All I Ask (STEREO)
DR8 -3.68 dB -25.17 dB 3:31 10-Cherie, I Love You (STEREO)
DR8 -4.04 dB -27.67 dB 3:39 11-Making Believe You're Here (STEREO)
DR7 -5.70 dB -27.27 dB 2:41 12-Cherchez La Femme (STEREO)
DR8 -3.82 dB -26.57 dB 3:17 13-For All We Know (STEREO)
DR8 -3.66 dB -29.06 dB 3:30 14-The More I See You (STEREO)
DR7 -3.73 dB -26.43 dB 3:57 15-Don't Blame Me (STEREO)
DR8 -3.89 dB -27.13 dB 3:07 16-There Is No Greater Love (STEREO)
––––––––––––––––––––––––––––––––––––––––

Number of tracks: 16
Official DR value: DR8

Samplerate: 2822400 Hz / PCM Samplerate: 88200 Hz
Channels: 5
Bits per sample: 24
Bitrate: 14112 kbps
Codec: DST64
================================================================================

––––––––––––––––––––––––––––––––––––––––
Analyzed: Nat "King" Cole / The Very Thought Of You
––––––––––––––––––––––––––––––––––––––––

DR Peak RMS Duration Track
––––––––––––––––––––––––––––––––––––––––
DR13 -5.57 dB -22.52 dB 3:50 01-The Very Thought Of You (STEREO)
DR14 -6.92 dB -24.58 dB 3:28 02-But Beautiful (STEREO)
DR13 -8.10 dB -25.80 dB 3:08 03-Impossible (STEREO)
DR15 -5.85 dB -25.07 dB 3:14 04-I Wish I Knew The Way To Your Heart (STEREO)
DR16 -5.63 dB -27.32 dB 2:52 05-I Found A Million Dollar Baby (In A Five And Ten Cent Store) (STEREO)
DR12 -8.47 dB -24.32 dB 3:55 06-Magnificent Obsession (STEREO)
DR13 -6.04 dB -24.99 dB 4:14 07-My Heart Tells Me (STEREO)
DR13 -8.21 dB -24.86 dB 3:13 08-Paradise (STEREO)
DR13 -5.60 dB -23.43 dB 4:33 09-This Is All I Ask (STEREO)
DR13 -6.30 dB -23.66 dB 3:31 10-Cherie, I Love You (STEREO)
DR15 -6.69 dB -26.04 dB 3:40 11-Making Believe You're Here (STEREO)
DR12 -7.91 dB -24.35 dB 2:42 12-Cherchez La Femme (STEREO)
DR14 -6.95 dB -25.18 dB 3:17 13-For All We Know (STEREO)
DR15 -7.14 dB -26.96 dB 3:29 14-The More I See You (STEREO)
DR14 -5.63 dB -23.52 dB 3:58 15-Don't Blame Me (STEREO)
DR14 -5.20 dB -22.96 dB 3:11 16-There Is No Greater Love (STEREO)
DR15 -6.65 dB -23.85 dB 3:50 17-The Very Thought Of You (MONO)
DR12 -5.86 dB -22.10 dB 3:28 18-But Beautiful (MONO)
DR14 -5.64 dB -22.96 dB 3:10 19-Impossible (MONO)
DR13 -4.85 dB -21.62 dB 3:14 20-I Wish I Knew The Way To Your Heart (MONO)
DR14 -4.82 dB -24.67 dB 2:51 21-I Found A Million Dollar Baby (In A Five And Ten Cent Store) (MONO)
DR13 -8.38 dB -24.64 dB 3:55 22-Magnificent Obsession (MONO)
DR12 -8.08 dB -24.27 dB 4:15 23-My Heart Tells Me (MONO)
DR13 -10.99 dB -27.12 dB 3:14 24-Paradise (MONO)
DR11 -5.36 dB -21.61 dB 4:30 25-This Is All I Ask (MONO)
DR13 -9.13 dB -25.17 dB 3:31 26-Cherie, I Love You (MONO)
DR14 -6.83 dB -23.59 dB 3:40 27-Making Believe You're Here (MONO)
DR13 -11.43 dB -28.84 dB 2:41 28-Cherchez La Femme (MONO)
DR13 -7.70 dB -25.38 dB 3:17 29-For All We Know (MONO)
DR13 -7.34 dB -25.02 dB 3:30 30-The More I See You (MONO)
DR16 -6.64 dB -26.52 dB 3:59 31-Don't Blame Me (MONO)
DR14 -9.32 dB -27.63 dB 3:09 32-There Is No Greater Love (MONO)
––––––––––––––––––––––––––––––––––––––––

Number of tracks: 32
Official DR value: DR14

Samplerate: 2822400 Hz / PCM Samplerate: 88200 Hz
Channels: 2
Bits per sample: 24
Bitrate: 5645 kbps
Codec: DST64



–––––––––––––––––––––––––––––––––––––––––––––––––––

Nat King Cole - Recent APO Collection (8x SACD, 1957-1963) PS3 ISO {RE-UP}

Nat King Cole - The Nat King Cole Story (1961) [2x SACD - APO Remaster 2011]
PS3 Rip | 2x SACD ISO | DST64 2.0 & 3.0 > 1-bit/2.8224 MHz | 103:01 minutes | Scans included | 4,44 GB
or FLAC 2.0 Stereo (converted with foobar2000 to tracks) 24bit/88,2 kHz | 110:13 mins | Scans included | 2,15 GB

One of Nat King Cole's crowning achievements, & a fittingly lavish celebration of a cultural & musical icon, The Nat King Cole Story offers a glorious overview of the career of one of the greatest & most beloved performers in popular music history. Containing 38 tracks, many re-recorded in stereo for this anthology, this unmatched set spans the entirety of his distinguished career.

Tracklist

DISC ONE:
01. Straighten Up And Fly Right
02. Sweet Lorraine
03. It's Only A Paper Moon
04. (Get Your Kicks On) Route 66
05. (I Love You) For Sentimental Reasons
06. The Christmas Song (Merry Christmas To You)
07. Nature Boy
08. Lush Life
09. Calypso Blues
10. Mona Lisa
11. Orange Colored Sky
12. Too Young
13. Unforgettable
14. Somewhere Along The Way
15. Walkin' My Baby Back Home
16. Pretend
17. Blue Gardenia
18. I Am In Love [Stereo Layer Only]

DISC TWO:
01. Answer Me, My Love
02. Smile
03. Darling, Je Vous Aime Beaucoup
04. The Sand And The Sea
05. If I May
06. A Blossom Fell
07. To The Ends Of The Earth
08. Night Lights
09. Ballerina
10. Stardust
11. Send For Me
12. St. Louis Blues
13. Looking Back
14. Non Dimenticar (Don't Forget)
15. Paradise
16. Oh, Mary, Don't You Weep
17. Ay, Cosita Linda
18. Wild Is Love
19. Ramblin' Rose [Stereo Layer Only]
20. Those Lazy-Hazy-Crazy Days Of Summer [Stereo Layer Only]

foobar2000 1.2.8 / Dynamic Range Meter 1.1.1

––––––––––––––––––––––––––––––––––––––––
Analyzed: Nat "King" Cole / The Nat King Cole Story (Disc 1)
––––––––––––––––––––––––––––––––––––––––

DR Peak RMS Duration Track
––––––––––––––––––––––––––––––––––––––––
DR8 -4.43 dB -23.63 dB 2:39 01-Straighten Up And Fly Right
DR7 -5.54 dB -24.76 dB 3:22 02-Sweet Lorraine
DR7 -5.99 dB -23.99 dB 2:58 03-It's Only A Paper Moon
DR8 -5.96 dB -25.05 dB 2:54 04-(Get Your Kicks On) Route 66
DR7 -7.41 dB -27.82 dB 3:06 05-(I Love You) For Sentimental Reasons
DR7 -6.45 dB -26.86 dB 3:10 06-The Christmas Song (Merry Christmas To You)
DR7 -5.73 dB -29.63 dB 2:52 07-Nature Boy
DR8 -5.13 dB -29.77 dB 3:45 08-Lush Life
DR8 -4.79 dB -28.16 dB 3:24 09-Calypso Blues
DR7 -5.48 dB -26.14 dB 3:26 10-Mona Lisa
DR8 -5.39 dB -27.29 dB 3:25 11-Orange Colored Sky
DR7 -3.88 dB -25.71 dB 3:26 12-Too Young
DR8 -5.55 dB -25.70 dB 2:59 13-Unforgettable
DR9 -5.49 dB -28.66 dB 2:43 14-Somewhere Along The Way
DR7 -7.40 dB -27.40 dB 2:45 15-Walkin' My Baby Back Home
DR8 -6.54 dB -30.66 dB 3:04 16-Pretend
DR8 -3.86 dB -27.02 dB 2:44 17-Blue Gardenia
––––––––––––––––––––––––––––––––––––––––

Number of tracks: 17
Official DR value: DR8

Samplerate: 2822400 Hz / PCM Samplerate: 88200 Hz
Channels: 5
Bits per sample: 24
Bitrate: 14112 kbps
Codec: DST64
================================================================================

––––––––––––––––––––––––––––––––––––––––
Analyzed: Nat "King" Cole / The Nat King Cole Story (Disc 1)
––––––––––––––––––––––––––––––––––––––––

DR Peak RMS Duration Track
––––––––––––––––––––––––––––––––––––––––
DR12 -5.28 dB -20.84 dB 2:39 01-Straighten Up And Fly Right
DR12 -7.78 dB -22.57 dB 3:23 02-Sweet Lorraine
DR12 -6.30 dB -22.02 dB 2:57 03-It's Only A Paper Moon
DR13 -5.81 dB -22.84 dB 2:56 04-(Get Your Kicks On) Route 66
DR13 -8.74 dB -25.23 dB 3:05 05-(I Love You) For Sentimental Reasons
DR12 -8.58 dB -24.37 dB 3:09 06-The Christmas Song (Merry Christmas To You)
DR13 -9.03 dB -25.85 dB 2:52 07-Nature Boy
DR14 -8.11 dB -26.02 dB 3:45 08-Lush Life
DR13 -9.36 dB -25.18 dB 3:23 09-Calypso Blues
DR11 -8.73 dB -23.00 dB 3:26 10-Mona Lisa
DR12 -6.59 dB -22.31 dB 2:33 11-Orange Colored Sky
DR12 -7.10 dB -22.49 dB 3:24 12-Too Young
DR13 -6.02 dB -23.53 dB 3:26 13-Unforgettable
DR13 -6.84 dB -22.39 dB 2:59 14-Somewhere Along The Way
DR14 -6.76 dB -25.26 dB 2:42 15-Walkin' My Baby Back Home
DR11 -10.70 dB -24.96 dB 2:45 16-Pretend
DR15 -5.93 dB -25.12 dB 3:05 17-Blue Gardenia
DR12 -5.60 dB -22.68 dB 2:40 18-I Am In Love
––––––––––––––––––––––––––––––––––––––––

Number of tracks: 18
Official DR value: DR13

Samplerate: 2822400 Hz / PCM Samplerate: 88200 Hz
Channels: 2
Bits per sample: 24
Bitrate: 5645 kbps
Codec: DST64


foobar2000 1.2.8 / Dynamic Range Meter 1.1.1

––––––––––––––––––––––––––––––––––––––––
Analyzed: Nat "King" Cole / The Nat King Cole Story (Disc 2)
––––––––––––––––––––––––––––––––––––––––

DR Peak RMS Duration Track
––––––––––––––––––––––––––––––––––––––––
DR6 -7.57 dB -25.64 dB 2:55 01-Answer Me, My Love
DR7 -6.65 dB -26.99 dB 2:52 02-Smile
DR7 -4.49 dB -25.66 dB 2:48 03-Darling, Je Vous Aime Beaucoup
DR6 -5.65 dB -24.64 dB 2:41 04-The Sand And The Sea
DR7 -5.11 dB -24.75 dB 2:57 05-If I May
DR7 -4.68 dB -24.78 dB 2:41 06-A Blossom Fell
DR7 -4.54 dB -26.94 dB 2:25 07-To The Ends Of The Earth
DR8 -4.20 dB -29.24 dB 2:49 08-Night Lights
DR9 -5.07 dB -27.90 dB 2:40 09-Ballerina
DR7 -6.28 dB -28.70 dB 3:13 10-Stardust
DR8 -4.07 dB -24.85 dB 2:29 11-Send For Me
DR8 -4.70 dB -25.24 dB 2:25 12-St. Louis Blues
DR7 -3.70 dB -22.59 dB 2:25 13-Looking Back
DR8 -4.46 dB -27.66 dB 3:44 14-Non Dimenticar (Don't Forget)
DR7 -4.33 dB -26.42 dB 3:11 15-Paradise
DR7 -3.57 dB -25.83 dB 2:49 16-Oh, Mary, Don't You Weep
DR7 -4.83 dB -24.92 dB 2:47 17-Ay, Cosita Linda
DR7 -4.77 dB -24.73 dB 2:27 18-Wild Is Love
––––––––––––––––––––––––––––––––––––––––

Number of tracks: 18
Official DR value: DR7

Samplerate: 2822400 Hz / PCM Samplerate: 88200 Hz
Channels: 5
Bits per sample: 24
Bitrate: 14112 kbps
Codec: DST64
================================================================================

––––––––––––––––––––––––––––––––––––––––
Analyzed: Nat "King" Cole / The Nat King Cole Story (Disc 2)
––––––––––––––––––––––––––––––––––––––––

DR Peak RMS Duration Track
––––––––––––––––––––––––––––––––––––––––
DR10 -8.83 dB -21.78 dB 2:54 01-Answer Me, My Love
DR12 -9.03 dB -23.99 dB 2:53 02-Smile
DR11 -7.69 dB -22.61 dB 2:48 03-Darling, Je Vous Aime Beaucoup
DR10 -7.69 dB -22.22 dB 2:41 04-The Sand And The Sea
DR12 -8.81 dB -23.13 dB 2:57 05-If I May
DR11 -7.17 dB -22.04 dB 2:42 06-A Blossom Fell
DR13 -6.61 dB -23.31 dB 2:25 07-To The Ends Of The Earth
DR14 -6.18 dB -25.22 dB 2:49 08-Night Lights
DR14 -6.68 dB -23.73 dB 2:41 09-Ballerina
DR13 -8.24 dB -25.89 dB 3:14 10-Stardust
DR15 -5.12 dB -23.56 dB 2:29 11-Send For Me
DR12 -7.33 dB -22.56 dB 2:26 12-St. Louis Blues
DR12 -8.71 dB -23.06 dB 2:26 13-Looking Back
DR14 -5.81 dB -24.69 dB 3:42 14-Non Dimenticar (Don't Forget)
DR12 -8.21 dB -24.80 dB 3:11 15-Paradise
DR13 -5.98 dB -23.08 dB 1:57 16-Oh, Mary, Don't You Weep
DR11 -6.45 dB -20.79 dB 2:15 17-Ay, Cosita Linda
DR12 -7.08 dB -23.14 dB 2:50 18-Wild Is Love
DR13 -6.02 dB -21.76 dB 2:48 19-Ramblin' Rose
DR13 -7.21 dB -24.44 dB 2:56 20-Those LazyThose Lazy-Hazy-Crazy Days Of Summer-Hazy-Crazy Days Of Summer
––––––––––––––––––––––––––––––––––––––––

Number of tracks: 20
Official DR value: DR12

Samplerate: 2822400 Hz / PCM Samplerate: 88200 Hz
Channels: 2
Bits per sample: 24
Bitrate: 5645 kbps
Codec: DST64



–––––––––––––––––––––––––––––––––––––––––––––––––––

Nat King Cole - Recent APO Collection (8x SACD, 1957-1963) PS3 ISO {RE-UP}

Nat King Cole - Where Did Everyone Go (1963) [APO Remaster 2010]
PS3 Rip | SACD ISO | DSD64 2.0 & DST64 3.0 > 1-bit/2.8224 MHz | Scans included | 2,56 GB (2,84 GB)

This is the third and final collection to feature the team of Nat King Cole and Gordon Jenkins (arranger). Their earlier collaborations yielded the uniformly superior chart-topper Love Is the Thing (1957) and follow-up The Very Thought of You (1958). As the moniker suggests, there is a perceptible poignancy and longing weaved throughout Jenkins' arrangements. The opener "Where Did Everyone Go?" possesses a solitude accentuated by responsive instrumentation that supports, yet never intrudes. Cole's practically conversational delivery of pop standards – such as Irving Berlin's "Say It Isn't So" or Johnny Mercer's "When the World Was Young" – become musical soliloquies with the score as a sonic subtext. His rich and cozy baritone carries the ache of "Am I Blue?" and the slinky "I Keep Goin' Back to Joe's" into an understated, almost plaintive blues. Here he perfectly demonstrates a boundless capacity as a melodic interpreter of song. "No, I Don't Want Her" finds Cole's voice gilded with an intimacy that virtually takes the listener into the singer's confidence. As he had done on his previous outings with Cole, Jenkins supplies one selection. Suitably "That's All There Is, There Isn't Any More" is the last track on the album and certainly provides a lovely contrast to Judy Garland's arguably more familiar reading.

Tracklist:

01. Where Did Everyone Go?
02. Say It Isn't So
03. If Love Ain't There
04. (Ah, The Apple Trees) When The World Was Young
05. Am I Blue?
06. Someone To Tell It To
07. The End Of A Love Affair
08. I Keep Goin' Back To Joe's
09. Laughing On The Outside (Crying On The Inside)
10. No, I Don't Want Her
11. Spring Is Here
12. That's All There Is
13. A Farewell To Arms
14. Happy New Year

foobar2000 1.2.9 / Dynamic Range Meter 1.1.1

––––––––––––––––––––––––––––––––––––––––
Analyzed: Nat "King" Cole / Where Did Everyone Go?
––––––––––––––––––––––––––––––––––––––––

DR Peak RMS Duration Track
––––––––––––––––––––––––––––––––––––––––
DR8 -4.30 dB -27.96 dB 4:33 01-Where Did Everyone Go?
DR8 -3.37 dB -27.71 dB 3:04 02-Say It Isn't So
DR8 -5.13 dB -27.14 dB 3:08 03-If Love Ain't There
DR7 -4.12 dB -27.04 dB 3:59 04-(Ah, The Apple Trees) When The World Was Young
DR8 -3.57 dB -26.51 dB 3:00 05-Am I Blue?
DR8 -3.46 dB -25.78 dB 3:15 06-Someone To Tell It To
DR7 -4.05 dB -26.78 dB 3:09 07-The End Of A Love Affair
DR7 -3.58 dB -26.60 dB 2:38 08-I Keep Goin' Back To Joe's
DR8 -3.50 dB -26.67 dB 2:46 09-Laughing On The Outside (Crying On The Inside)
DR8 -4.13 dB -26.84 dB 3:02 10-No, I Don't Want Her
DR8 -5.80 dB -28.28 dB 2:32 11-Spring Is Here
DR7 -3.92 dB -27.01 dB 2:42 12-That's All There Is
DR7 -4.04 dB -25.46 dB 2:50 13-A Farewell To Arms
DR7 -4.34 dB -26.37 dB 3:13 14-Happy New Year
––––––––––––––––––––––––––––––––––––––––

Number of tracks: 14
Official DR value: DR8

Samplerate: 2822400 Hz / PCM Samplerate: 88200 Hz
Channels: 5
Bits per sample: 24
Bitrate: 14112 kbps
Codec: DST64
================================================================================

––––––––––––––––––––––––––––––––––––––––
Analyzed: Nat "King" Cole / Where Did Everyone Go?
––––––––––––––––––––––––––––––––––––––––

DR Peak RMS Duration Track
––––––––––––––––––––––––––––––––––––––––
DR14 -5.37 dB -22.93 dB 4:33 01-Where Did Everyone Go?
DR13 -6.06 dB -23.96 dB 3:05 02-Say It Isn't So
DR13 -7.05 dB -23.14 dB 3:08 03-If Love Ain't There
DR13 -8.06 dB -24.85 dB 3:59 04-(Ah, The Apple Trees) When The World Was Young
DR13 -6.60 dB -23.53 dB 3:00 05-Am I Blue?
DR13 -5.98 dB -23.12 dB 3:14 06-Someone To Tell It To
DR12 -7.63 dB -24.00 dB 3:09 07-The End Of A Love Affair
DR13 -8.64 dB -25.36 dB 2:37 08-I Keep Goin' Back To Joe's
DR12 -7.73 dB -24.84 dB 2:46 09-Laughing On The Outside (Crying On The Inside)
DR13 -6.56 dB -23.51 dB 3:01 10-No, I Don't Want Her
DR13 -9.41 dB -26.23 dB 2:32 11-Spring Is Here
DR13 -7.83 dB -24.99 dB 2:43 12-That's All There Is
DR11 -6.21 dB -21.82 dB 2:51 13-A Farewell To Arms
DR12 -5.65 dB -22.72 dB 3:13 14-Happy New Year
––––––––––––––––––––––––––––––––––––––––

Number of tracks: 14
Official DR value: DR13

Samplerate: 2822400 Hz / PCM Samplerate: 88200 Hz
Channels: 2
Bits per sample: 24
Bitrate: 5645 kbps
Codec: DSD64



ManWhoCan wrote:
I guess you guys have not heard the Nat King Cole, Analogue Productions, 3ch SACDs then?
They also have a 2ch layer, from the same master and mix, so it's easy to compare, and the 3ch blows the 2ch out of the water!
Mind you one has to have a surround system that is equally as good as one's 2ch system to really appreciate that wonderful voice given all of the centre channel, on it's own…..sublime :)

Thanks to ManWhoCan!
More of 'Nat King Cole' on SACD