Neil Young & Crazy Horse - Re-ac-tor (1981/2016) [Official Digital Download 24-bit/96kHz]

Posted By: HDV
Neil Young & Crazy Horse - Re-ac-tor (1981/2016) [Official Digital Download 24-bit/96kHz]

Neil Young & Crazy Horse - Re·ac·tor (1981/2016)
FLAC (tracks) 24-bit/96 kHz | Time - 39:10 minutes | 879 MB
Studio Master, Official Digital Download | Artwork: Front cover

Re·ac·tor is the eleventh studio album by Canadian musician Neil Young, and his fourth with Crazy Horse, released in 1981. The album combined the electric guitar-focused approach that Young took in his late 1970s records with Crazy Horse sound with early 1980s new wave rhythms. It was unavailable on compact disc until it was released as a HDCD-encoded remastered version in 2003 as part of the Neil Young Archives Digital Masterpiece Series.

Neil Young employs Crazy Horse to help him bash out a guitar-drenched hard rock set made up of thrown-together material. The group plays fiercely, as usual, but the lyrics are sketchy, seemingly improvised (the nadir is the nine-minute "T-Bone," which consists of the lines "Got mashed potato/Ain't got no t-bone" repeated over and over), and frequently cranky, as in "Motor City," which finds Young criticizing Japanese cars, and "Rapid Transit," which takes a belated swipe at new wave music while sounding like second-rate Talking Heads. For the second album in a row, Young seems to be just fulfilling his one-album-a-year record contract. The exception is the album-closing "Shots" (written by 1978), a more substantive and threatening song given a riveting performance. Later, it would be revealed that Young was finding time for his music while giving most of his attention to caring for his disabled son. Still, he might have been better advised to have suspended record-making for a few years instead of turning out half-baked efforts like this one.


01 - Opera Star
02 - Surfer Joe And Moe The Sleaze
03 - T-Bone
04 - Get Back On It
05 - Southern Pacific
06 - Motor City
07 - Rapid Transit
08 - Shots

Neil Young – guitar, piano, vocals, synth, solina
Frank Sampedro – guitar, stringman, vocals
Billy Talbot – bass, vocals
Ralph Molina – drums, percussion, vocals

Analyzed: Neil Young & Crazy Horse / Re-ac-tor

DR Peak RMS Duration Track
DR13 -0.57 dB -15.61 dB 3:33 01-Opera Star
DR12 -1.45 dB -15.62 dB 4:19 02-Surfer Joe And Moe The Sleaze
DR13 -1.79 dB -16.43 dB 9:15 03-T-Bone
DR11 -2.33 dB -15.12 dB 2:20 04-Get Back On It
DR10 -3.04 dB -15.40 dB 4:12 05-Southern Pacific
DR12 -0.96 dB -15.76 dB 3:12 06-Motor City
DR12 -0.26 dB -16.03 dB 4:38 07-Rapid Transit
DR12 -0.05 dB -14.22 dB 7:41 08-Shots

Number of tracks: 8
Official DR value: DR12

Samplerate: 96000 Hz
Channels: 2
Bits per sample: 24
Bitrate: 3086 kbps
Codec: FLAC

Thanks to the Original customer!