Neil Young & Promise Of The Real - The Visitor (2017) [Official Digital Download 24/96]

Posted By: HDV
Neil Young & Promise Of The Real - The Visitor (2017) [Official Digital Download 24/96]

Neil Young + Promise Of The Real - The Visitor (2017)
FLAC (tracks) 24-bit/96 kHz | Time - 51:14 minutes | 1,03 GB
Studio Master, Official Digital Download | Artwork: Front cover

Neil Young's first two collaborations with Promise of the Real, the band led by Willie Nelson's son Lukas Nelson, sounded sorta like tethered Crazy Horse albums. But without the free-fall unpredictability of Young's most reliable backing group of the past five decades, 2015's The Monsanto Years and the following year's embellished live record, Earth, came off like more structured attempts to capture Young at his most unhinged and plugged in. Their third record, The Visitor, is more of the same, and like The Monsanto Years and last year's Peace Trail, it's a political one, charged through a filter of recent news.

When Neil Young entered Shangri La Studio with the band Promise Of The Real a few months ago, there were a lot of images and feelings careening around his soul. The country was heading in a direction Young had never seen, even though up until then he thought he'd seen it all. But something different was happening, and it had gotten inside his music. "I'm a Canadian by the way and I love the USA," he sings on the first song "Already Great." The ethos of The Visitor can be summed up in the refrain of "Already Great" where Young insists, "Already great, you're already great. You're the promise land, the helping hand. No wall. No hate. No fascist USA. WHOSE STREET? OUR STREET." From those words, Neil Young was ready to take a musical journey on his new album The Visitor like he had never taken before. It was one where he'd even surprise himself, always the mark of a creative leap. By the end of the recording sessions, he knew he'd made his most diverse album going all the way back to Harvest in 1972, when America was also in the throes of becoming unhinged. Neil Young didn't blink then, and he is not blinking now.

Tracklist:

01 - Already Great
02 - Fly By Night Deal
03 - Almost Always
04 - Stand Tall
05 - Change of Heart
06 - Carnival
07 - Diggin' a Hole
08 - Children of Destiny
09 - When Bad Got Good
10 - Forever

Analyzed: Neil Young + Promise of the Real / The Visitor
––––––––––––––––––––––––––––––––––––––––

DR Peak RMS Duration Track
––––––––––––––––––––––––––––––––––––––––
DR12 0.00 dB -14.32 dB 5:48 01-Already Great
DR12 -0.27 dB -14.72 dB 2:37 02-Fly By Night Deal
DR11 -0.85 dB -17.52 dB 4:51 03-Almost Always
DR12 -0.85 dB -14.96 dB 5:13 04-Stand Tall
DR14 -0.43 dB -18.68 dB 5:54 05-Change of Heart
DR14 -0.25 dB -15.85 dB 8:21 06-Carnival
DR12 -0.37 dB -15.67 dB 2:33 07-Diggin' a Hole
DR13 -1.01 dB -16.36 dB 3:25 08-Children of Destiny
DR14 0.00 dB -16.29 dB 2:00 09-When Bad Got Good
DR13 -0.53 dB -16.15 dB 10:32 10-Forever
––––––––––––––––––––––––––––––––––––––––

Number of tracks: 10
Official DR value: DR13

Samplerate: 96000 Hz
Channels: 2
Bits per sample: 24
Bitrate: 2673 kbps
Codec: FLAC
================================================================================


Thanks to the Original customer!