Subcategories

Neil Young - Hitchhiker (2017) [Official Digital Download 24/192]

Posted By: delpotro
Neil Young - Hitchhiker (2017) [Official Digital Download 24/192]

Neil Young - Hitchhiker (2017)
FLAC (tracks) 24-bit/192 kHz | Time - 33:42 minutes | 1.33 GB
Studio Master, Official Digital Download | Artwork: Front Cover

Hitchhiker is the thirty-eighth studio album by Canadian singer-songwriter Neil Young, due to be released on September 8, 2017 on Reprise Records. Co-produced by Young and David Briggs with post-production from John Hanlon, the album was originally recorded on August 11, 1976 at Indigo Ranch Recording Studio in Malibu, California.

Between 1975 and 1977, Young and producer David Briggs periodically conducted recording sessions at Indigo Ranch on nights of the full moon. These sessions took place during a particularly productive period for Young and yielded such songs as "Will to Love" and "Stringman." Briggs said of the time, "He'd turn to me and go, 'Guess I’ll turn on the tap'—and then out came 'Powderfinger,' 'Pocahontas,' 'Out of the Blue,' 'Ride My Llama.' Two days, a day. I'm not talkin' about sittin' down with a pen and paper, I'm talkin' about pickin' up a guitar, sittin' there and lookin' me in the face and in twenty minutes—'Pocahontas.'"

The songs on the album were recorded in a single night. In his memoir Special Deluxe, Young described the session, "It was a complete piece, although I was pretty stony on it, and you can hear it in my performances… I laid down all the songs in a row, pausing only for weed, beer, or coke. Briggs was in the control room, mixing live on his favorite console." Many of the songs would appear on future Young albums: "Pocahontas" is the same take used on Rust Never Sleeps sans overdubs; "Captain Kennedy" remains virtually unchanged from Hawks & Doves; "Campaigner" is presented in its unedited length with an additional verse as it appeared on the German release and test pressings of Decade but is otherwise unchanged; whereas the others appeared on American Stars 'n Bars, Comes a Time, Rust Never Sleeps, and Le Noise, albeit from different sessions and performances. Hitchhiker also contains a pair of never-before-released songs: "Hawaii" and "Give Me Strength," which Young has occasionally performed live.

In an interview with KOTO FM that was also posted to his Facebook page, Young stated that the session was intended to be released as an album not long after it was recorded, but Reprise executives were unimpressed. The material was considered to be no more than a collection of demos not fit for release, and the label suggested that Neil rerecord the songs with a backing band.

Writing for The A.V. Club, Josh Modell gave the album a B+ rating and called it a "fantastic" artifact of Young's fruitful 1970's songwriting period. Additionally, Modell praised the "naked and intimate" sound of "Pocahontas" and "Powderfinger" and concluded, "If the bottom of the barrel sounds this good, [Young] should keep 'em coming."

Tracklist:
1. Pocahontas
2. Powderfinger
3. Captain Kennedy
4. Hawaii
5. Give Me Strength
6. Ride My Llama
7. Hitchhiker
8. Campaigner
9. Human Highway
10. The Old Country Waltz

foobar2000 1.3.7 / Замер динамического диапазона (DR) 1.1.1
Дата отчёта: 2017-09-08 20:44:56
––––––––––––––––––––––––––––––––––––––––
Анализ: Neil Young / Hitchhiker
––––––––––––––––––––––––––––––––––––––––
DR Пики RMS Продолжительность трека
––––––––––––––––––––––––––––––––––––––––
DR13 -0.16 дБ -15.71 дБ 3:27 01-Pocahontas
DR13 -0.91 дБ -17.75 дБ 3:23 02-Powderfinger
DR14 -1.69 дБ -20.37 дБ 2:52 03-Captain Kennedy
DR13 -3.24 дБ -19.65 дБ 2:38 04-Hawaii
DR12 -3.09 дБ -18.11 дБ 3:40 05-Give Me Strength
DR14 -2.47 дБ -19.15 дБ 1:50 06-Ride My Llama
DR14 -1.65 дБ -19.47 дБ 4:37 07-Hitchhiker
DR13 -2.44 дБ -17.76 дБ 4:19 08-Campaigner
DR13 -0.81 дБ -18.25 дБ 3:17 09-Human Highway
DR16 -0.58 дБ -20.29 дБ 3:38 10-The Old Country Waltz
––––––––––––––––––––––––––––––––––––––––
Количество треков: 10
Реальные значения DR: DR14
Частота: 192000 Гц
Каналов: 2
Разрядность: 24
Битрейт: 5482 кбит/с
Кодек: FLAC
================================================================================

Thanks to the Original customer dotodot500 !