New York Trio - Love You Madly (2003) [Japan 2016] SACD ISO + Hi-Res FLAC

Posted By: HDAtall
New York Trio - Love You Madly (2003) [Japan 2016] SACD ISO + Hi-Res FLAC

New York Trio - Love You Madly (2003) [Japan 2016]
SACD Rip | SACD ISO | DSD64 2.0 > 1-bit/2.8224 MHz | 62:20 minutes | Front/Rear Covers | 1,94 GB
or FLAC(converted with foobar2000 to tracks) 24bit/88,2 kHz | Front/Rear Covers | 1,32 GB

The vast Duke Ellington songbook is always ripe for exploration, and the New York Trio, featuring pianist Bill Charlap, bassist Jay Leonhart, and drummer Bill Stewart, is up to the task. The gorgeous ballad "The Star Crossed Lovers" is in good hands, as Charlap gently examines the facets of this gem, accompanied by Leonhart's spacious basslines and Stewart's whispering brushes. The brisk run through "Love You Madly" is transformed into an extended workout instead of the brief versions typically played by its composer. Charlap's bluesy gospel introduction to "I'm Just a Lucky So-and-So" will turn a few heads. Even though there's nothing new about tackling "It Don't Mean a Thing (If It Ain't Got That Swing)" at a racehorse tempo, this trio's intricate workout is a bit more abstract than most recordings. Charlap's jaunty treatment of "I Let a Song Go Out of My Heart" suggests its composer's stride piano roots. Another sentimental journey.

Tracklist:

01. Star Crossed Lovers
02. Jump For Joy
03. In A Sentimental Mood
04. Love You Madly
05. Sophisticated Lady
06. I'm Just A Lucky So - And - So
07. Prelude To A Kiss
08. It Don't Mean A Thing
09. C Jam Blues
10. I Let A Song Go Out Of My Heart
11. Warm Valley

Produced, Mixed & Mastered by Tetsuo Hara. Engineered by Jim Anderson.
Recorded on April 7, 2003 at Avatar Studio in New York.
Venus Hyper Magnum Sound Direct Mix. VENUS Japan # VHGD-192.

Personnel
Bill Charlap - piano
Jay Leonhart - bass
Bill Stewart - drums

foobar2000 1.3.16 / Dynamic Range Meter 1.1.1

––––––––––––––––––––––––––––––––––––––––
Analyzed: NEW YORK TRIO / Love You Madly
––––––––––––––––––––––––––––––––––––––––

DR Peak RMS Duration Track
––––––––––––––––––––––––––––––––––––––––
DR12 -5.00 dB -20.09 dB 4:27 01-Star Crossed Lovers
DR9 -4.32 dB -15.54 dB 4:41 02-Jump For Joy
DR11 -4.99 dB -20.52 dB 5:52 03-In A Sentimental Mood
DR8 -3.50 dB -13.88 dB 8:16 04-Love You Madly
DR10 -4.39 dB -17.34 dB 4:53 05-Sophisticated Lady
DR9 -4.31 dB -16.07 dB 6:43 06-I'm Just A Lucky So - And - So
DR11 -5.04 dB -19.83 dB 6:13 07-Prelude To A Kiss
DR7 -3.70 dB -13.17 dB 3:50 08-It Don't Mean A Thing
DR11 -4.19 dB -18.07 dB 4:31 09-C Jam Blues
DR9 -3.89 dB -15.57 dB 7:11 10-I Let A Song Go Out Of My Heart
DR10 -4.52 dB -18.68 dB 5:39 11-Warm Valley
––––––––––––––––––––––––––––––––––––––––

Number of tracks: 11
Official DR value: DR10

Samplerate: 2822400 Hz / PCM Samplerate: 88200 Hz
Channels: 2
Bits per sample: 1
Bitrate: 5645 kbps
Codec: DSD64


Thanks to jazzyman!
Uncompressed SACD ISO size > 2,52 GB

Much more of NEW YORK TRIO on SACDs
>