Nick Palmer - For The First Time (1967/2017) [Official Digital Download 24-bit/192kHz]

Posted By: HDV
Nick Palmer - For The First Time (1967/2017) [Official Digital Download 24-bit/192kHz]

Nick Palmer - For The First Time (Coma Prima) (1967/2017)
FLAC (tracks) 24-bit/192 kHz | Time - 28:18 minutes | 1,18 GB
Studio Master, Official Digital Download | Artwork: Front cover

Plush voice, plush style. That, and two singles that have received some notice, are the factors here for Nick Palmer. In addition, Palmer has an impressive way of handling, a ballad, such as "No Arms Can Ever Hold You". At the time of release it has been a bonus to Easy Listening radio stations.

Tracklist:

01 - Theme from the Warsaw Concerto
02 - For the First Time (Come Prima)
03 - If Ever I Would Leave You (From the Musical Production ''Camelot'')
04 - Worlds of Time
05 - Be My Love
06 - If I Ever Love Again
07 - Born Free (From the Motion Picture ''Born Free'')
08 - You're the Only Real Thing
09 - Without a Song
10 - You Only Want a Lover
11 - No Arms Can Ever Hold You

Arranged & Conducted by Marty Manning.
Produced by Joe René. Engineered by Mickey Crofford.
Recorded at Webster Hall.

Analyzed: Nick Palmer / For the First Time (Coma Prima)
––––––––––––––––––––––––––––––––––––––––

DR Peak RMS Duration Track
––––––––––––––––––––––––––––––––––––––––
DR10 -0.02 dB -12.53 dB 2:15 01-Theme from the Warsaw Concerto
DR11 -0.54 dB -13.76 dB 2:11 02-For the First Time (Come Prima)
DR10 -0.02 dB -13.39 dB 3:35 03-If Ever I Would Leave You (From the Musical Production ''Camelot'')
DR9 -0.91 dB -13.49 dB 2:15 04-Worlds of Time
DR9 -0.02 dB -12.30 dB 2:27 05-Be My Love
DR11 -0.02 dB -12.36 dB 2:18 06-If I Ever Love Again
DR10 -0.02 dB -12.42 dB 2:23 07-Born Free (From the Motion Picture ''Born Free'')
DR10 -0.95 dB -15.04 dB 2:30 08-You're the Only Real Thing
DR10 -0.44 dB -12.51 dB 3:28 09-Without a Song
DR10 -0.02 dB -13.42 dB 2:23 10-You Only Want a Lover
DR10 -0.02 dB -13.06 dB 2:32 11-No Arms Can Ever Hold You
––––––––––––––––––––––––––––––––––––––––

Number of tracks: 11
Official DR value: DR10

Samplerate: 192000 Hz
Channels: 2
Bits per sample: 24
Bitrate: 5505 kbps
Codec: FLAC
================================================================================


Thanks to the Original customer!

Nick Palmer - Turns It On (1967)