Nicki Parrott - Sakura Sakura (2012) [Japan 2015] SACD ISO + Hi-Res FLAC

Posted By: HDAtall
Nicki Parrott - Sakura Sakura (2012) [Japan 2015] SACD ISO + Hi-Res FLAC

Nicki Parrott - Sakura Sakura (2012) [Japan 2015]
SACD Rip | SACD ISO | DSD64 2.0 > 1-bit/2.8224 MHz | 65:09 minutes | Front/Rear Covers | 2,09 GB
or FLAC(converted with foobar2000 to tracks) 24bit/88,2 kHz | Front/Rear Covers | 1,42 GB

Jazz bassist & vocalist Nicki Parrott releases an album devoted to the theme of Spring, a season filled with hope and celebration of new life. She performs standards such as "April In Paris," "April Showers," "I Love Paris," and more, as well as "Sakura Sakura" which is a Japanese traditional song about cherry blossoms, which she sings in Japanese. A stellar team of New York-based musicians supports the leader. Nicki's sister Lisa Parrott is prominently featured on soprano and baritone saxophone, and the participation of the great young trumpeter Dominick Farinacci is a welcome surprise. Another twist is bassist Martin Wind, who plays cello instead of his usual instrument in this album.

Tracklist:

01. April In Paris
02. April Showers
03. Cherry Pink And Apple Blossam White
04. It Might As Well Be Spring
05. Sakura Sakura
06. Some Other Spring
07. I Love Paris
08. Spring Can Really Hang You Up The Most
09. Spring Is Here
10. Suddenly It's Spring
11. There'll Be Another Spring
12. They Say It's Spring
13. You Must Believe In Spring
14. I'll Remember April

Produced, Mixed & Mastered by Tetsuo Hara. Engineered by Katherine Miller.
Recorded at Avatar Studio in New York on October 25, 26 & 28, 2011.
Venus Hyper Magnum Sound Direct Mix. VENUS Japan # VHGD-55.

Personnel
Nicki Parrott - vocals, bass
John Di Martino - piano
Lisa Parrott - soprano & baritone saxophone
Paul Meyers - guitar
Tim Horner - drums
Dominick Farinacci - trumpet
Martin Wind - cello

foobar2000 1.3.16 / Dynamic Range Meter 1.1.1

––––––––––––––––––––––––––––––––––––––––
Analyzed: Nicki Parrott / SAKURA SAKURA
––––––––––––––––––––––––––––––––––––––––

DR Peak RMS Duration Track
––––––––––––––––––––––––––––––––––––––––
DR8 -5.26 dB -14.51 dB 4:18 01-April In Paris
DR8 -4.67 dB -13.91 dB 4:55 02-April Showers
DR8 -4.35 dB -13.66 dB 3:35 03-Cherry Pink And Apple Blossam White
DR8 -4.91 dB -13.69 dB 5:39 04-It Might As Well Be Spring
DR7 -4.38 dB -13.26 dB 3:24 05-Sakura Sakura
DR8 -5.25 dB -14.57 dB 5:09 06-Some Other Spring
DR8 -5.20 dB -14.50 dB 4:53 07-I Love Paris
DR9 -6.05 dB -17.80 dB 4:53 08-Spring Can Really Hang You Up The Most
DR8 -6.26 dB -16.86 dB 3:35 09-Spring Is Here
DR8 -5.20 dB -14.30 dB 3:47 10-Suddenly It's Spring
DR8 -5.12 dB -15.02 dB 5:24 11-There'll Be Another Spring
DR8 -5.43 dB -14.77 dB 5:09 12-They Say It's Spring
DR8 -5.28 dB -14.56 dB 5:55 13-You Must Believe In Spring
DR7 -4.68 dB -12.86 dB 4:34 14-I'll Remember April
––––––––––––––––––––––––––––––––––––––––

Number of tracks: 14
Official DR value: DR8

Samplerate: 2822400 Hz / PCM Samplerate: 88200 Hz
Channels: 2
Bits per sample: 1
Bitrate: 5645 kbps
Codec: DSD64


Thanks to jazzyman!
Uncompressed SACD ISO size > 2,61 GB
>